<?xml version="1.0" encoding="UTF-8" standalone="no"?>
<!DOCTYPE svg  PUBLIC '-//W3C//DTD SVG 1.1//EN'  'http://www.w3.org/Graphics/SVG/1.1/DTD/svg11.dtd'>
<svg version="1.1" xmlns="http://www.w3.org/2000/svg">
<defs>
<font id="Stolzl-Bold" horiz-adv-x="664">
<font-face unicode-range="U+0020-00FE" cap-height="700" bbox="-72 -263 1089 1039" underline-thickness="50" panose-1="0 0 8 0 0 0 0 0 0 0" underline-position="-150" descent="-200" units-per-em="1000" x-height="550" font-weight="700" font-family="Stolzl Bold" ascent="800"/>
<missing-glyph/>
<glyph horiz-adv-x="300" unicode=" " glyph-name="space"/>
<glyph horiz-adv-x="346" d="M258 700v-214l-11 -240h-148l-11 240v214h170zM173 183q44 0 73.5 -27.5t29.5 -70.5t-29.5 -70.5t-73.5 -27.5t-73.5 27.5t-29.5 70.5t29.5 70.5t73.5 27.5z" unicode="!" glyph-name="exclam"/>
<glyph horiz-adv-x="534" d="M90 377l-20 215v108h170v-108l-20 -215h-130zM314 377l-20 215v108h170v-108l-20 -215h-130z" unicode='&quot;' glyph-name="quotedbl"/>
<glyph horiz-adv-x="966" d="M860 457h-141l-36 -139h140l-36 -136h-140l-48 -182h-156l48 182h-124l-48 -182h-156l48 182h-141l36 136h141l36 139h-140l36 136h140l47 177h156l-47 -177h124l47 177h156l-47 -177h141zM527 318l36 139h-124l-36 -139h124z" unicode="#" glyph-name="numbersign"/>
<glyph horiz-adv-x="649" d="M614 212q0 -95 -58 -148.5t-143 -69.5v-118h-169v122q-67 15 -113.5 53t-68 82.5t-27.5 97.5h172q13 -45 42.5 -65t93.5 -20q100 0 100 59q0 25 -23.5 35.5t-96.5 25.5q-8 1 -12.5 2t-12 3t-14.5 3q-50 10 -85.5 23t-71.5 36.5t-55 61.5t-19 90q0 87 53 143t135 75v121 h169v-119q94 -20 142 -80.5t56 -143.5h-172q-9 35 -33.5 54t-79.5 19q-52 0 -75.5 -17.5t-23.5 -43.5q0 -21 18.5 -30t66.5 -19q5 -1 8.5 -1.5t7.5 -1.5q158 -34 223.5 -80.5t65.5 -148.5z" unicode="$" glyph-name="dollar"/>
<glyph horiz-adv-x="1122" d="M271 291q-91 0 -146 56.5t-55 154.5t55 154.5t146 56.5t146 -56.5t55 -154.5t-55 -154.5t-146 -56.5zM841 700l-400 -700h-160l400 700h160zM271 422q30 0 42 19.5t12 60.5t-12 60.5t-42 19.5t-42 -19.5t-12 -60.5t12 -60.5t42 -19.5zM851 409q91 0 146 -56.5t55 -154.5 t-55 -154.5t-146 -56.5t-146 56.5t-55 154.5t55 154.5t146 56.5zM851 278q-30 0 -42 -19.5t-12 -60.5t12 -60.5t42 -19.5t42 19.5t12 60.5t-12 60.5t-42 19.5z" unicode="%" glyph-name="percent"/>
<glyph horiz-adv-x="769" d="M734 0h-216l-35 37q-84 -50 -192 -50t-182 51.5t-74 155.5q0 64 31.5 106.5t100.5 83.5q-55 76 -55 139q0 93 64.5 141.5t150.5 48.5q87 0 150 -50t63 -140q0 -113 -130 -188q57 -60 65 -68q11 29 16 56h172q-9 -99 -66 -182q97 -99 137 -141zM326 558q-42 0 -42 -46 q0 -24 22 -57q34 18 48 31.5t14 33.5q0 38 -42 38zM301 142q38 0 70 11q-68 72 -103 110q-35 -18 -48 -31.5t-13 -31.5q0 -27 24 -42.5t70 -15.5z" unicode="&amp;" glyph-name="ampersand"/>
<glyph horiz-adv-x="310" d="M240 700v-108l-20 -215h-130l-20 215v108h170z" unicode="&apos;" glyph-name="quotesingle"/>
<glyph horiz-adv-x="442" d="M372 707q-73 -145 -102 -240.5t-29 -206.5t29 -206.5t102 -240.5l-129 -76q-173 238 -173 523t173 523z" unicode="(" glyph-name="parenleft"/>
<glyph horiz-adv-x="442" d="M70 707l129 76q173 -238 173 -523t-173 -523l-129 76q73 145 102 240.5t29 206.5t-29 206.5t-102 240.5z" unicode=")" glyph-name="parenright"/>
<glyph horiz-adv-x="576" d="M506 516l-118 -54l82 -102l-98 -79l-85 105l-84 -105l-98 79l82 103l-117 53l50 114l106 -47v117h123v-117l106 47z" unicode="*" glyph-name="asterisk"/>
<glyph horiz-adv-x="641" d="M406 545v-169h165v-162h-165v-170h-170v170h-166v162h166v169h170z" unicode="+" glyph-name="plus"/>
<glyph horiz-adv-x="368" d="M194 183q40 0 72 -24.5t32 -82.5t-120 -248h-108l81 167q-59 21 -59 88q0 44 29 72t73 28z" unicode="," glyph-name="comma"/>
<glyph horiz-adv-x="483" d="M414 376v-162h-344v162h344z" unicode="-" glyph-name="hyphen"/>
<glyph horiz-adv-x="346" d="M173 183q44 0 73.5 -27.5t29.5 -70.5t-29.5 -70.5t-73.5 -27.5t-73.5 27.5t-29.5 70.5t29.5 70.5t73.5 27.5z" unicode="." glyph-name="period"/>
<glyph horiz-adv-x="395" d="M385 770l-203 -770h-172l203 770h172z" unicode="/" glyph-name="slash"/>
<glyph horiz-adv-x="700" d="M350 713q144 0 227 -99t83 -264t-83 -264t-227 -99t-227 99t-83 264t83 264t227 99zM350 149q72 0 105 50.5t33 150.5t-33 150.5t-105 50.5t-105 -50.5t-33 -150.5t33 -150.5t105 -50.5z" unicode="0" glyph-name="zero"/>
<glyph horiz-adv-x="420" d="M273 700h77v-700h-170v502l-155 -65v167z" unicode="1" glyph-name="one"/>
<glyph horiz-adv-x="612" d="M314 162h263v-162h-542v121l205 179q101 89 126.5 118t25.5 60q0 30 -20.5 51.5t-64.5 21.5q-82 0 -93 -95h-171q4 117 79.5 187t192.5 70q114 0 181.5 -66t67.5 -161q0 -32 -10 -61.5t-21 -50t-41.5 -52t-48 -47t-62.5 -55.5l-65 -57z" unicode="2" glyph-name="two"/>
<glyph horiz-adv-x="615" d="M485 366q45 -20 70 -62t25 -99q0 -103 -72 -160.5t-194 -57.5q-118 0 -195.5 61.5t-83.5 177.5h172q11 -78 105 -78q96 0 96 74q0 30 -19 44t-68 14h-92v148h76q39 0 61 11.5t22 42.5q0 70 -88 70q-76 0 -88 -71h-172q7 109 81 170.5t184 61.5q113 0 184 -59t71 -149 q0 -94 -75 -139z" unicode="3" glyph-name="three"/>
<glyph horiz-adv-x="650" d="M625 306v-159h-95v-147h-170v147l-335 -1v160l254 394h251v-394h95zM204 307h156v235h-8z" unicode="4" glyph-name="four"/>
<glyph horiz-adv-x="617" d="M350 474q97 0 164.5 -62.5t67.5 -170.5q0 -117 -77 -185.5t-196 -68.5q-70 0 -129.5 24.5t-100.5 81.5t-44 138h172q4 -43 32.5 -63t67.5 -20q48 0 75.5 26.5t27.5 68.5t-27.5 66.5t-72.5 24.5q-34 0 -58.5 -13t-35.5 -30h-162l87 409h408v-162h-280l-18 -88q43 24 99 24 z" unicode="5" glyph-name="five"/>
<glyph horiz-adv-x="622" d="M361 479q92 0 159 -59t67 -168q0 -118 -79 -191.5t-196 -73.5q-116 0 -196.5 73t-80.5 189q0 32 5.5 62t21.5 65t27 58.5t40.5 65t43 60.5t53 70.5t53.5 69.5h201l-187 -234q30 13 68 13zM311 149q46 0 75 28t29 75q0 46 -28.5 72.5t-75.5 26.5t-75.5 -26.5t-28.5 -72.5 q0 -47 29 -75t75 -28z" unicode="6" glyph-name="six"/>
<glyph horiz-adv-x="560" d="M25 700h510v-121l-286 -579h-192l273 538h-305v162z" unicode="7" glyph-name="seven"/>
<glyph horiz-adv-x="616" d="M480 365q48 -22 74.5 -66t26.5 -99q0 -97 -76.5 -155t-196.5 -58t-196.5 58t-76.5 155q0 55 26.5 99t74.5 66q-38 21 -60.5 59.5t-22.5 85.5q0 88 73 145.5t182 57.5t182 -57.5t73 -145.5q0 -47 -22.5 -85.5t-60.5 -59.5zM308 553q-85 0 -85 -65q0 -57 85 -57t85 57 q0 65 -85 65zM308 147q102 0 102 69q0 68 -102 68t-102 -68q0 -69 102 -69z" unicode="8" glyph-name="eight"/>
<glyph horiz-adv-x="622" d="M310 713q116 0 196.5 -73t80.5 -189q0 -32 -5.5 -62t-21.5 -65t-27 -58.5t-40.5 -65t-43 -60.5t-53 -70.5t-53.5 -69.5h-201l187 234q-30 -13 -68 -13q-92 0 -159 59t-67 168q0 118 79 191.5t196 73.5zM311 349q47 0 75.5 26.5t28.5 72.5q0 47 -29 75t-75 28t-75 -28 t-29 -75q0 -46 28.5 -72.5t75.5 -26.5z" unicode="9" glyph-name="nine"/>
<glyph horiz-adv-x="346" d="M173 531q44 0 73.5 -27.5t29.5 -70.5t-29.5 -70.5t-73.5 -27.5t-73.5 27.5t-29.5 70.5t29.5 70.5t73.5 27.5zM173 183q44 0 73.5 -27.5t29.5 -70.5t-29.5 -70.5t-73.5 -27.5t-73.5 27.5t-29.5 70.5t29.5 70.5t73.5 27.5z" unicode=":" glyph-name="colon"/>
<glyph horiz-adv-x="368" d="M195 335q-44 0 -73.5 27.5t-29.5 70.5t29.5 70.5t73.5 27.5t73.5 -27.5t29.5 -70.5t-29.5 -70.5t-73.5 -27.5zM194 183q40 0 72 -24.5t32 -82.5t-120 -248h-108l81 167q-59 21 -59 88q0 44 29 72t73 28z" unicode=";" glyph-name="semicolon"/>
<glyph horiz-adv-x="641" d="M571 520v-177l-234 -54l234 -53v-178l-501 177v108z" unicode="&lt;" glyph-name="less"/>
<glyph horiz-adv-x="641" d="M571 484v-155h-501v155h501zM571 274v-156h-501v156h501z" unicode="=" glyph-name="equal"/>
<glyph horiz-adv-x="641" d="M70 520l501 -177v-108l-501 -177v178l234 53l-234 54v177z" unicode="&gt;" glyph-name="greater"/>
<glyph horiz-adv-x="578" d="M203 246v53q0 52 19 76t81 56q43 23 56 34t13 31q0 59 -82 59q-38 0 -60 -18.5t-24 -69.5h-171q2 116 75.5 181t186.5 65q107 0 176.5 -56t69.5 -155q0 -69 -33.5 -105.5t-106.5 -75.5q-22 -12 -28 -23t-6 -33v-19h-166zM285 -13q-46 0 -76 27t-30 71t30 71t76 27t76 -27 t30 -71t-30 -71t-76 -27z" unicode="?" glyph-name="question"/>
<glyph horiz-adv-x="1129" d="M577 783q145 0 260.5 -57t183.5 -169t68 -261q0 -143 -62 -219.5t-174 -76.5q-127 0 -174 93q-55 -93 -158 -93q-95 0 -158 72t-63 183q0 112 63.5 184t155.5 72q87 0 140 -68v56h150l-1 -286q0 -71 59 -71q35 0 52 29.5t17 103.5q0 96 -27.5 168.5t-77 114.5t-112 62.5 t-138.5 20.5q-175 0 -281.5 -102t-106.5 -278q0 -178 103.5 -280t272.5 -102q99 0 175 35l29 -138q-95 -39 -209 -39q-231 0 -377.5 145.5t-146.5 377.5q0 231 150.5 377t386.5 146zM556 144q44 0 73.5 30.5t29.5 80.5t-29.5 81t-73.5 31q-45 0 -74 -31t-29 -81t29.5 -80.5 t73.5 -30.5z" unicode="@" glyph-name="at"/>
<glyph horiz-adv-x="772" d="M567 0l-50 145h-262l-50 -145h-180l254 700h214l254 -700h-180zM311 307h150l-75 218z" unicode="A" glyph-name="A"/>
<glyph horiz-adv-x="660" d="M519 379q52 -19 79 -65.5t27 -108.5q0 -97 -65.5 -151t-173.5 -54h-316v700h316q96 0 155.5 -47t59.5 -137q0 -94 -82 -137zM429 486q0 30 -16 41t-50 11h-123v-105h130q59 0 59 53zM382 162q40 0 55.5 14.5t15.5 43.5q0 31 -15 44.5t-56 13.5h-142v-116h142z" unicode="B" glyph-name="B"/>
<glyph horiz-adv-x="784" d="M408 -13q-157 0 -260 104t-103 259t103 259t260 104q127 0 219.5 -72t121.5 -188h-182q-21 46 -62.5 72t-96.5 26q-86 0 -138.5 -56t-52.5 -145t52.5 -145t138.5 -56q55 0 96.5 26t62.5 72h182q-29 -116 -121.5 -188t-219.5 -72z" unicode="C" glyph-name="C"/>
<glyph horiz-adv-x="729" d="M331 700q153 0 255.5 -100.5t102.5 -249.5t-102.5 -249.5t-255.5 -100.5h-261v700h261zM331 162q83 0 135.5 52.5t52.5 135.5q0 84 -52.5 136t-135.5 52h-91v-376h91z" unicode="D" glyph-name="D"/>
<glyph horiz-adv-x="587" d="M552 538h-312v-104h284v-162h-284v-110h312v-162h-482v700h482v-162z" unicode="E" glyph-name="E"/>
<glyph horiz-adv-x="587" d="M552 538h-312v-111h284v-162h-284v-265h-170v700h482v-162z" unicode="F" glyph-name="F"/>
<glyph horiz-adv-x="816" d="M362 387h389v-387h-145v98q-24 -49 -82.5 -80t-137.5 -31q-146 0 -246 102.5t-100 258.5q0 158 103 261.5t260 103.5q127 0 219.5 -69.5t121.5 -181.5h-182q-21 42 -62.5 65.5t-96.5 23.5q-87 0 -139 -56t-52 -149q0 -88 48.5 -145t138.5 -57q59 0 104.5 26t66.5 75h-208 v142z" unicode="G" glyph-name="G"/>
<glyph horiz-adv-x="749" d="M509 700h170v-700h-170v276h-269v-276h-170v700h170v-262h269v262z" unicode="H" glyph-name="H"/>
<glyph horiz-adv-x="310" d="M70 0v700h170v-700h-170z" unicode="I" glyph-name="I"/>
<glyph horiz-adv-x="594" d="M352 700h172v-462q0 -121 -71.5 -186t-180.5 -65q-107 0 -177 64t-70 185v32h172v-27q0 -54 20 -73t55 -19q37 0 58.5 20t21.5 74v457z" unicode="J" glyph-name="J"/>
<glyph horiz-adv-x="711" d="M686 0h-212l-234 317v-317h-170v700h170v-298l219 298h209l-252 -338z" unicode="K" glyph-name="K"/>
<glyph horiz-adv-x="549" d="M240 162h284v-162h-454v700h170v-538z" unicode="L" glyph-name="L"/>
<glyph horiz-adv-x="841" d="M578 700h193v-700h-170v462l-175 -267h-16l-175 267v-462h-170v700h193l160 -240z" unicode="M" glyph-name="M"/>
<glyph horiz-adv-x="742" d="M507 700h170v-700h-193l-263 441l14 -148v-293h-170v700h193l262 -441l-13 148v293z" unicode="N" glyph-name="N"/>
<glyph horiz-adv-x="812" d="M406 713q155 0 260.5 -104.5t105.5 -258.5t-105.5 -258.5t-260.5 -104.5t-260.5 104.5t-105.5 258.5t105.5 258.5t260.5 104.5zM406 551q-84 0 -139 -56.5t-55 -144.5t55 -144.5t139 -56.5t139 56.5t55 144.5t-55 144.5t-139 56.5z" unicode="O" glyph-name="O"/>
<glyph horiz-adv-x="662" d="M370 700q114 0 183 -63t69 -177t-69.5 -179t-182.5 -65h-130v-216h-170v700h300zM363 378q87 0 87 80t-87 80h-123v-160h123z" unicode="P" glyph-name="P"/>
<glyph horiz-adv-x="812" d="M772 350q0 -146 -94 -246l94 -124l-129 -98l-99 130q-66 -25 -138 -25q-155 0 -260.5 104.5t-105.5 258.5t105.5 258.5t260.5 104.5t260.5 -104.5t105.5 -258.5zM212 350q0 -88 55 -144.5t139 -56.5t139 56.5t55 144.5t-55 144.5t-139 56.5t-139 -56.5t-55 -144.5z" unicode="Q" glyph-name="Q"/>
<glyph horiz-adv-x="691" d="M458 0l-165 243h-53v-243h-170v700h312q111 0 175.5 -62.5t64.5 -171.5q0 -161 -140 -207l184 -259h-208zM450 464q0 74 -87 74h-123v-146h123q87 0 87 72z" unicode="R" glyph-name="R"/>
<glyph horiz-adv-x="649" d="M325 441q158 -34 223.5 -80.5t65.5 -148.5q0 -49 -17.5 -88.5t-45 -64.5t-64 -42t-72 -23.5t-71.5 -6.5q-77 0 -136 21t-94 57t-54 77t-25 89h172q13 -45 42.5 -65t93.5 -20q100 0 100 59q0 25 -23.5 35.5t-96.5 25.5q-8 1 -12.5 2t-12 3t-14.5 3q-50 10 -85.5 23 t-71.5 36.5t-55 61.5t-19 90q0 73 40.5 126.5t100.5 77.5t129 24q138 0 206.5 -65t78.5 -167h-172q-9 35 -33.5 54t-79.5 19q-52 0 -75.5 -17.5t-23.5 -43.5q0 -21 18.5 -30t66.5 -19q5 -1 8.5 -1.5t7.5 -1.5z" unicode="S" glyph-name="S"/>
<glyph horiz-adv-x="601" d="M576 700v-162h-191v-538h-170v538h-190v162h551z" unicode="T" glyph-name="T"/>
<glyph horiz-adv-x="725" d="M487 700h173l-1 -414q0 -144 -81.5 -221.5t-212.5 -77.5t-212.5 77.5t-81.5 221.5l-1 414h173v-404q0 -147 122 -147t122 147v404z" unicode="U" glyph-name="U"/>
<glyph horiz-adv-x="704" d="M499 700h180l-221 -700h-214l-219 700h180l147 -494z" unicode="V" glyph-name="V"/>
<glyph horiz-adv-x="1017" d="M818 700h174l-169 -700h-209l-61 253l-36 247l-17 1l-35 -248l-61 -253h-210l-169 700h175l80 -335l21 -163l21 163l80 335h213l80 -335l22 -167l21 167z" unicode="W" glyph-name="W"/>
<glyph horiz-adv-x="706" d="M681 0h-202l-128 218l-124 -218h-202l224 364l-213 336h202l118 -201l118 201h202l-217 -349z" unicode="X" glyph-name="X"/>
<glyph horiz-adv-x="705" d="M680 700l-242 -476v-224h-170v222l-243 478h191l137 -285l137 285h190z" unicode="Y" glyph-name="Y"/>
<glyph horiz-adv-x="598" d="M250 162h313v-162h-528v162l311 376h-295v162h509l1 -162z" unicode="Z" glyph-name="Z"/>
<glyph horiz-adv-x="437" d="M367 770v-162h-127v-696h127v-162h-297v1020h297z" unicode="[" glyph-name="bracketleft"/>
<glyph horiz-adv-x="515" d="M242 770l203 -770h-172l-203 770h172z" unicode="\" glyph-name="backslash"/>
<glyph horiz-adv-x="437" d="M70 770h297v-1020h-297v162h127v696h-127v162z" unicode="]" glyph-name="bracketright"/>
<glyph horiz-adv-x="643" d="M322 713l251 -252l-120 -120l-131 132l-132 -132l-120 120z" unicode="^" glyph-name="asciicircum"/>
<glyph horiz-adv-x="600" d="M530 -19v-162h-460v162h460z" unicode="_" glyph-name="underscore"/>
<glyph horiz-adv-x="401" d="M170 838l161 -161l-73 -73l-188 134z" unicode="`" glyph-name="grave"/>
<glyph d="M444 550h170l-1 -550h-170v59q-59 -72 -155 -72q-106 0 -177 81t-71 207t71.5 207t175.5 81q99 0 157 -75v62zM328 149q50 0 83 34.5t33 91.5q0 56 -33 91t-83 35t-83 -35t-33 -91q0 -57 33 -91.5t83 -34.5z" unicode="a" glyph-name="a"/>
<glyph d="M377 563q104 0 175.5 -81t71.5 -207t-71 -207t-177 -81q-96 0 -156 72v-59h-170v770h170v-282q58 75 157 75zM336 149q50 0 83 34.5t33 91.5q0 56 -33 91t-83 35t-83 -35t-33 -91q0 -57 33 -91.5t83 -34.5z" unicode="b" glyph-name="b"/>
<glyph horiz-adv-x="636" d="M328 -13q-125 0 -206.5 82.5t-81.5 205.5t81.5 205.5t207.5 82.5q107 0 186 -61.5t91 -168.5h-175q-18 73 -102 73q-55 0 -86 -36t-31 -95t31.5 -95t84.5 -36q37 0 65.5 18.5t37.5 55.5h175q-13 -109 -92.5 -170t-185.5 -61z" unicode="c" glyph-name="c"/>
<glyph horiz-adv-x="674" d="M454 770h170v-770h-170v59q-60 -72 -156 -72q-106 0 -177 81t-71 207t71.5 207t175.5 81q99 0 157 -75v282zM338 149q50 0 83 34.5t33 91.5q0 56 -33 91t-83 35t-83 -35t-33 -91q0 -57 33 -91.5t83 -34.5z" unicode="d" glyph-name="d"/>
<glyph horiz-adv-x="646" d="M330 563q135 0 216 -93.5t68 -230.5h-401q6 -60 39.5 -90.5t81.5 -30.5q35 0 61 16.5t36 45.5h175q-27 -97 -101.5 -145t-170.5 -48q-130 0 -212 82t-82 206q0 123 81.5 205.5t208.5 82.5zM329 432q-87 0 -111 -90h219q-9 41 -36.5 65.5t-71.5 24.5z" unicode="e" glyph-name="e"/>
<glyph horiz-adv-x="492" d="M367 634q-83 0 -83 -83v-1h166v-160h-166v-390h-170v390h-94v160h94v10q0 112 69.5 167.5t163.5 55.5q79 0 135 -27l-30 -137l-22 6q-34 9 -63 9z" unicode="f" glyph-name="f"/>
<glyph d="M444 550h170v-542q0 -122 -75.5 -196.5t-201.5 -74.5q-109 0 -189.5 55t-93.5 163h175q16 -67 103 -67q112 0 112 114v67q-60 -72 -156 -72q-106 0 -177 80t-71 203t71.5 203t176.5 80q97 0 156 -74v61zM328 159q50 0 83 34t33 87t-33 87t-83 34t-83 -34t-33 -87 t33.5 -87t82.5 -34z" unicode="g" glyph-name="g"/>
<glyph horiz-adv-x="626" d="M384 563q91 0 144 -59t53 -160v-344h-170v306q0 48 -18.5 71.5t-67.5 23.5q-100 0 -100 -109v-292h-170v770h170v-282q61 75 159 75z" unicode="h" glyph-name="h"/>
<glyph horiz-adv-x="270" d="M135 810q45 0 74 -27.5t29 -69.5q0 -43 -29 -70.5t-74 -27.5q-44 0 -73.5 28t-29.5 70t29.5 69.5t73.5 27.5zM50 0v550h170v-550h-170z" unicode="i" glyph-name="i"/>
<glyph horiz-adv-x="270" d="M135 810q45 0 74 -27.5t29 -69.5q0 -43 -29 -70.5t-74 -27.5q-44 0 -73.5 28t-29.5 70t29.5 69.5t73.5 27.5zM50 -250v800h170v-800h-170z" unicode="j" glyph-name="j"/>
<glyph horiz-adv-x="654" d="M634 0h-215l-194 226v-226h-170v770h170v-439l181 219h215l-235 -262z" unicode="k" glyph-name="k"/>
<glyph horiz-adv-x="270" d="M50 0v770h170v-770h-170z" unicode="l" glyph-name="l"/>
<glyph horiz-adv-x="961" d="M723 563q89 0 141 -59.5t52 -159.5v-344h-170v306q0 48 -18 71.5t-64 23.5q-96 0 -96 -109v-292h-170v306q0 48 -18 71.5t-64 23.5q-96 0 -96 -109v-292h-170v550h170v-62q61 75 156 75q115 0 165 -96q66 96 182 96z" unicode="m" glyph-name="m"/>
<glyph horiz-adv-x="623" d="M379 563q93 0 146 -59t53 -160v-344h-170v306q0 48 -19 71.5t-68 23.5q-101 0 -101 -109v-292h-170v550h170v-62q61 75 159 75z" unicode="n" glyph-name="n"/>
<glyph horiz-adv-x="656" d="M328 563q120 0 204 -82.5t84 -205.5q0 -124 -83 -206t-205 -82q-121 0 -204.5 82.5t-83.5 205.5t84 205.5t204 82.5zM328 401q-50 0 -83 -35t-33 -91q0 -57 33 -91.5t83 -34.5t83 34.5t33 91.5q0 56 -33 91t-83 35z" unicode="o" glyph-name="o"/>
<glyph horiz-adv-x="669" d="M382 563q104 0 175.5 -81t71.5 -207t-71 -207t-177 -81q-96 0 -156 72v-309h-170v800h170v-62q58 75 157 75zM341 149q50 0 83 34.5t33 91.5q0 56 -33 91t-83 35t-83 -35t-33 -91q0 -57 33 -91.5t83 -34.5z" unicode="p" glyph-name="p"/>
<glyph d="M444 550h170v-800h-170v309q-60 -72 -156 -72q-106 0 -177 81t-71 207t71.5 207t175.5 81q99 0 157 -75v62zM328 149q50 0 83 34.5t33 91.5q0 56 -33 91t-83 35t-83 -35t-33 -91q0 -57 33 -91.5t83 -34.5z" unicode="q" glyph-name="q"/>
<glyph horiz-adv-x="431" d="M380 563q19 0 31 -3v-175q-22 2 -34 2q-33 0 -58.5 -6t-49.5 -21.5t-36.5 -46t-12.5 -75.5v-238h-170v550h170v-85q50 98 160 98z" unicode="r" glyph-name="r"/>
<glyph horiz-adv-x="590" d="M303 -13q-112 0 -187.5 50t-90.5 137h172q14 -59 108 -59q75 0 75 38q0 16 -19 23.5t-92 23.5q-121 26 -171 64t-50 109q0 89 67.5 139t186.5 50q220 0 248 -172h-172q-12 44 -83 44q-75 0 -75 -39q0 -13 11.5 -17.5t57.5 -14.5q9 -2 13 -3q137 -30 195 -66.5t58 -116.5 q0 -92 -70.5 -141t-181.5 -49z" unicode="s" glyph-name="s"/>
<glyph horiz-adv-x="531" d="M467 172l29 -137q-26 -18 -75 -33t-97 -15q-89 0 -149.5 55.5t-60.5 170.5v177h-94v160h94v113l170 37v-150h185v-160h-185v-167q0 -78 70 -78q28 0 113 27z" unicode="t" glyph-name="t"/>
<glyph horiz-adv-x="619" d="M399 550h170v-550h-170v63q-61 -76 -158 -76q-91 0 -143.5 59t-52.5 160v344h170v-306q0 -48 18.5 -71.5t66.5 -23.5q99 0 99 109v292z" unicode="u" glyph-name="u"/>
<glyph horiz-adv-x="604" d="M403 550h181l-181 -550h-202l-181 550h181l101 -359z" unicode="v" glyph-name="v"/>
<glyph horiz-adv-x="893" d="M705 550h168l-146 -550h-195l-49 185l-28 198h-17l-28 -198l-49 -185h-195l-146 550h168l44 -173l35 -182l34 182l45 173h201l44 -173l35 -180l34 180z" unicode="w" glyph-name="w"/>
<glyph horiz-adv-x="629" d="M609 0h-202l-95 151l-88 -151h-204l191 284l-181 266h202l86 -139l79 139h204l-182 -271z" unicode="x" glyph-name="x"/>
<glyph horiz-adv-x="636" d="M435 550h181l-351 -800h-181l143 326l-207 474h181l116 -287z" unicode="y" glyph-name="y"/>
<glyph horiz-adv-x="548" d="M259 160h254v-160h-478v160l245 230h-230v160h454v-160z" unicode="z" glyph-name="z"/>
<glyph horiz-adv-x="539" d="M363 389q0 -70 -28.5 -96t-90.5 -33q62 -7 90.5 -33t28.5 -96v-14q0 -67 7 -109.5t22.5 -64.5t32 -30.5t44.5 -13.5v-162q-50 0 -96.5 17t-88 52.5t-66.5 99.5t-25 149v23q0 56 -16 76.5t-69 20.5h-38v170h38q53 0 69 20.5t16 76.5v23q0 85 25 149t66.5 99.5t88 52.5 t96.5 17v-162q-28 -5 -44.5 -13.5t-32 -30.5t-22.5 -64.5t-7 -109.5v-14z" unicode="{" glyph-name="braceleft"/>
<glyph horiz-adv-x="310" d="M240 700v-794h-170v794h170z" unicode="|" glyph-name="bar"/>
<glyph horiz-adv-x="539" d="M431 345h38v-170h-38q-53 0 -69 -20.5t-16 -76.5v-23q0 -85 -25 -149t-66.5 -99.5t-88 -52.5t-96.5 -17v162q28 5 44.5 13.5t32 30.5t22.5 64.5t7 109.5v14q0 70 28.5 96t90.5 33q-62 7 -90.5 33t-28.5 96v14q0 67 -7 109.5t-22.5 64.5t-32 30.5t-44.5 13.5v162 q50 0 96.5 -17t88 -52.5t66.5 -99.5t25 -149v-23q0 -56 16 -76.5t69 -20.5z" unicode="}" glyph-name="braceright"/>
<glyph horiz-adv-x="641" d="M436 214q-29 0 -53 7.5t-69 26.5q-64 28 -76 28q-16 0 -22.5 -11.5t-6.5 -41.5h-139q0 115 35 159t100 44q29 0 53 -7.5t69 -26.5q64 -28 76 -28q16 0 22.5 11.5t6.5 41.5h139q0 -115 -35 -159t-100 -44z" unicode="~" glyph-name="asciitilde"/>
<glyph horiz-adv-x="346" d="M173 287q-44 0 -73.5 27.5t-29.5 70.5t29.5 70.5t73.5 27.5t73.5 -27.5t29.5 -70.5t-29.5 -70.5t-73.5 -27.5zM258 -230h-170v214l11 240h148l11 -240v-214z" unicode="¡" glyph-name="exclamdown"/>
<glyph horiz-adv-x="636" d="M328 144q37 0 65.5 18.5t37.5 55.5h175q-10 -86 -62.5 -142.5t-130.5 -77.5v-148h-169v148q-92 26 -148 101.5t-56 175.5t55.5 175.5t148.5 101.5v148h169v-148q78 -21 131 -78t62 -141h-175q-18 73 -102 73q-55 0 -86 -36t-31 -95t31.5 -95t84.5 -36z" unicode="¢" glyph-name="cent"/>
<glyph horiz-adv-x="753" d="M512 236h171q0 -124 -54 -180t-165 -56h-394v162h20q39 0 53 16.5t14 53.5v39h-87v150h87v65q0 97 59.5 162t172.5 65q111 0 177.5 -65t66.5 -171h-171q0 37 -14.5 55.5t-50.5 18.5q-30 0 -46.5 -12t-20 -26t-3.5 -35v-57h152v-150h-152v-28q0 -59 -33 -81h145 q46 0 59.5 15t13.5 59z" unicode="£" glyph-name="sterling"/>
<glyph horiz-adv-x="761" d="M622 346q0 -55 -21 -101l90 -90l-119 -119l-90 90q-45 -21 -101 -21q-52 0 -102 21l-89 -90l-120 119l90 89q-21 50 -21 102q0 53 21 101l-90 90l120 119l90 -90q50 21 101 21q55 0 100 -21l90 90l120 -119l-90 -90q21 -45 21 -101zM381 254q38 0 63.5 25t25.5 67 q0 41 -25.5 66.5t-63.5 25.5t-63.5 -25.5t-25.5 -66.5q0 -42 25.5 -67t63.5 -25z" unicode="¤" glyph-name="currency"/>
<glyph horiz-adv-x="795" d="M725 700l-210 -414h113v-88h-145v-35h145v-88h-145v-75h-170v75h-146v88h146v35h-146v88h113l-210 414h191l137 -285l137 285h190z" unicode="¥" glyph-name="yen"/>
<glyph horiz-adv-x="310" d="M240 700v-357h-170v357h170zM240 263v-357h-170v357h170z" unicode="¦" glyph-name="brokenbar"/>
<glyph horiz-adv-x="637" d="M487 211q80 -39 80 -130q0 -93 -67 -142.5t-178 -49.5q-107 0 -168.5 45t-75.5 127h172q11 -44 76 -44q69 0 69 44q0 11 -10.5 15.5t-55.5 14.5q-32 7 -50.5 11.5t-46.5 12.5t-44.5 15t-37.5 17t-32.5 21.5t-23 26.5t-16.5 33t-5 40q0 73 77 123q-80 39 -80 130 q0 93 67 142.5t178 49.5q107 0 168.5 -45t75.5 -127h-172q-11 44 -76 44q-69 0 -69 -44q0 -11 10.5 -15.5t55.5 -14.5q32 -7 50.5 -11.5t46.5 -12.5t44.5 -15t37.5 -17t32.5 -21.5t23 -26.5t16.5 -33t5 -40q0 -73 -77 -123zM248 306q0 -19 19 -28t88 -25q34 22 34 43 q0 19 -19 28t-88 25q-34 -22 -34 -43z" unicode="§" glyph-name="section"/>
<glyph horiz-adv-x="554" d="M163 801q40 0 66.5 -25t26.5 -63q0 -39 -26 -64t-67 -25q-40 0 -66.5 25t-26.5 64q0 38 26.5 63t66.5 25zM390 801q41 0 67.5 -25t26.5 -63q0 -39 -26.5 -64t-67.5 -25q-40 0 -66.5 25t-26.5 64q0 38 26.5 63t66.5 25z" unicode="¨" glyph-name="dieresis"/>
<glyph horiz-adv-x="680" d="M340 783q112 0 191 -79t79 -191t-79 -191t-191 -79t-191 79t-79 191t79 191t191 79zM340 305q86 0 146.5 61t60.5 147t-60.5 146.5t-146.5 60.5t-146.5 -61t-60.5 -146q0 -86 60.5 -147t146.5 -61zM342 573q-25 0 -40 -16.5t-15 -43.5t15 -43.5t40 -16.5q37 0 46 32h85 q-7 -50 -44 -80t-87 -30q-59 0 -98.5 39.5t-39.5 98.5t39.5 98.5t98.5 39.5q50 0 87 -30t44 -80h-85q-9 32 -46 32z" unicode="©" glyph-name="copyright"/>
<glyph horiz-adv-x="831" d="M318 31l-248 248l248 248l116 -117l-132 -131l132 -131zM645 31l-248 248l248 248l116 -117l-132 -131l132 -131z" unicode="«" glyph-name="guillemotleft"/>
<glyph horiz-adv-x="641" d="M571 376v-287h-170v125h-331v162h501z" unicode="¬" glyph-name="logicalnot"/>
<glyph horiz-adv-x="680" d="M340 783q112 0 191 -79t79 -191t-79 -191t-191 -79t-191 79t-79 191t79 191t191 79zM340 305q86 0 146.5 61t60.5 147t-60.5 146.5t-146.5 60.5t-146.5 -61t-60.5 -146q0 -86 60.5 -147t146.5 -61zM458 553q0 -55 -52 -75l66 -91h-95l-57 82h-7v-82h-80v251h139 q40 0 63 -22.5t23 -62.5zM375 550q0 21 -23 21h-39v-43h39q23 0 23 22z" unicode="®" glyph-name="registered"/>
<glyph horiz-adv-x="390" d="M320 770v-122h-250v122h250z" unicode="¯" glyph-name="macron"/>
<glyph horiz-adv-x="483" d="M242 783q71 0 121.5 -50t49.5 -121q1 -71 -49.5 -121.5t-121.5 -50.5t-121.5 50.5t-50.5 121.5t50.5 121t121.5 50zM242 663q-22 0 -36.5 -14.5t-14.5 -38.5q0 -23 14.5 -37t36.5 -14t36.5 14t13.5 37q0 24 -14.5 38.5t-35.5 14.5z" unicode="°" glyph-name="degree"/>
<glyph horiz-adv-x="641" d="M406 545v-116h165v-127h-165v-116h-170v116h-166v127h166v116h170zM571 151v-128h-501v128h501z" unicode="±" glyph-name="plusminus"/>
<glyph horiz-adv-x="428" d="M228 489h170v-115h-368v104l147 112q39 29 49 40.5t10 25.5q0 22 -24 22q-16 0 -24 -9.5t-9 -33.5h-147q3 59 49 103.5t134 44.5q83 0 125.5 -40t42.5 -95q0 -44 -31.5 -77.5t-98.5 -68.5z" unicode="²" glyph-name="uni00B2"/>
<glyph horiz-adv-x="430" d="M346 581q54 -32 54 -90q0 -52 -44 -91t-134 -39q-93 0 -141.5 41t-50.5 101h147q4 -21 12.5 -29t26.5 -8q37 0 37 31q0 32 -32 32h-44v90h44q22 0 22 32q0 27 -29 27t-32 -37h-147q2 61 49.5 101.5t131.5 40.5q85 0 129.5 -39.5t44.5 -90.5q0 -48 -44 -72z" unicode="³" glyph-name="uni00B3"/>
<glyph horiz-adv-x="401" d="M231 840l100 -100l-188 -134l-73 73z" unicode="´" glyph-name="acute"/>
<glyph horiz-adv-x="731" d="M172 700h489v-801h-170v639h-111v-639h-170v500h-38q-44 0 -73 29t-29 73v97q0 44 29 73t73 29z" unicode="¶" glyph-name="paragraph"/>
<glyph horiz-adv-x="346" d="M173 410q44 0 73.5 -27.5t29.5 -70.5t-29.5 -70.5t-73.5 -27.5t-73.5 27.5t-29.5 70.5t29.5 70.5t73.5 27.5z" unicode="·" glyph-name="periodcentered"/>
<glyph horiz-adv-x="339" d="M213 -76q76 -23 76 -90q0 -49 -42.5 -73t-117.5 -24q-35 0 -59 3v81q28 -4 39 -4q51 0 51 27t-70 40l50 116h114z" unicode="¸" glyph-name="cedilla"/>
<glyph horiz-adv-x="310" d="M203 770h77v-396h-145v250l-105 -32v129z" unicode="¹" glyph-name="uni00B9"/>
<glyph horiz-adv-x="831" d="M186 31l-116 117l132 131l-132 131l116 117l248 -248zM513 31l-116 117l132 131l-132 131l116 117l248 -248z" unicode="»" glyph-name="guillemotright"/>
<glyph horiz-adv-x="1023" d="M280 304h-145v250l-105 -32v129l173 49h77v-396zM600 700h160l-400 -700h-160zM993 183v-115h-69v-68h-145v68h-189v115l158 213h176v-213h69zM703 183h76v106z" unicode="¼" glyph-name="onequarter"/>
<glyph horiz-adv-x="1048" d="M280 304h-145v250l-105 -32v129l173 49h77v-396zM600 700h160l-400 -700h-160zM848 115h170v-115h-368v104l147 112q39 29 49 40.5t10 25.5q0 22 -24 22q-16 0 -24 -9.5t-9 -33.5h-147q3 59 49 103.5t134 44.5q83 0 125.5 -40t42.5 -95q0 -44 -31.5 -77.5t-98.5 -68.5z " unicode="½" glyph-name="onehalf"/>
<glyph horiz-adv-x="1113" d="M400 421q0 -52 -44 -91t-134 -39q-93 0 -141.5 41t-50.5 101h147q4 -21 12.5 -29t26.5 -8q37 0 37 31q0 32 -32 32h-44v90h44q22 0 22 32q0 27 -29 27t-32 -37h-147q2 61 49.5 101.5t131.5 40.5q85 0 129.5 -39.5t44.5 -90.5q0 -48 -44 -72q54 -32 54 -90zM690 700h160 l-400 -700h-160zM1083 183v-115h-69v-68h-145v68h-189v115l158 213h176v-213h69zM793 183h76v106z" unicode="¾" glyph-name="threequarters"/>
<glyph horiz-adv-x="578" d="M293 463q46 0 76 -27t30 -71t-30 -71t-76 -27t-76 27t-30 71t30 71t76 27zM375 204v-53q0 -52 -19 -76t-81 -56q-43 -23 -56 -34t-13 -31q0 -59 82 -59q38 0 60 18.5t24 69.5h171q-2 -116 -75.5 -181t-186.5 -65q-107 0 -176.5 56t-69.5 155q0 69 33.5 105.5t106.5 75.5 q22 12 28 23t6 33v19h166z" unicode="¿" glyph-name="questiondown"/>
<glyph horiz-adv-x="772" d="M516 843l-73 -73l-188 134l100 100zM567 0l-50 145h-262l-50 -145h-180l254 700h214l254 -700h-180zM311 307h150l-75 218z" unicode="À" glyph-name="Agrave"/>
<glyph horiz-adv-x="772" d="M516 904l-188 -134l-73 73l161 161zM567 0l-50 145h-262l-50 -145h-180l254 700h214l254 -700h-180zM311 307h150l-75 218z" unicode="Á" glyph-name="Aacute"/>
<glyph horiz-adv-x="772" d="M386 852l-72 -82l-89 89l161 161l161 -161l-89 -89zM567 0l-50 145h-262l-50 -145h-180l254 700h214l254 -700h-180zM311 307h150l-75 218z" unicode="Â" glyph-name="Acircumflex"/>
<glyph horiz-adv-x="772" d="M330 816q-27 0 -27 -37h-100q0 167 120 167q34 0 72 -24q30 -19 47 -19q27 0 27 37h100q0 -167 -120 -167q-34 0 -72 24q-30 19 -47 19zM567 0l-50 145h-262l-50 -145h-180l254 700h214l254 -700h-180zM311 307h150l-75 218z" unicode="Ã" glyph-name="Atilde"/>
<glyph horiz-adv-x="772" d="M272 790q-40 0 -66.5 25t-26.5 64q0 38 26.5 63t66.5 25t66.5 -25t26.5 -63q0 -39 -26 -64t-67 -25zM499 790q-40 0 -66.5 25t-26.5 64q0 38 26.5 63t66.5 25q41 0 67.5 -25t26.5 -63q0 -39 -26.5 -64t-67.5 -25zM567 0l-50 145h-262l-50 -145h-180l254 700h214l254 -700 h-180zM311 307h150l-75 218z" unicode="Ä" glyph-name="Adieresis"/>
<glyph horiz-adv-x="772" d="M385 770q-55 0 -94.5 39.5t-39.5 95.5q0 55 39.5 94.5t94.5 39.5q56 0 95.5 -39t39.5 -95t-39.5 -95.5t-95.5 -39.5zM385 945q-17 0 -28.5 -11.5t-10.5 -29.5q-1 -18 10.5 -29.5t28.5 -11.5t28.5 11.5t11.5 29.5t-11.5 29.5t-28.5 11.5zM567 0l-50 145h-262l-50 -145 h-180l254 700h214l254 -700h-180zM311 307h150l-75 218z" unicode="Å" glyph-name="Aring"/>
<glyph horiz-adv-x="905" d="M870 538h-312v-104h284v-162h-284v-110h312v-162h-482v145h-133l-50 -145h-180l254 700h214h377v-162zM311 307h77v223z" unicode="Æ" glyph-name="AE"/>
<glyph horiz-adv-x="784" d="M408 149q55 0 96.5 26t62.5 72h182q-27 -107 -108.5 -177.5t-195.5 -80.5l-35 -65q76 -23 76 -90q0 -49 -42.5 -73t-117.5 -24q-35 0 -59 3v81q28 -4 39 -4q51 0 51 27t-70 40l47 110q-129 24 -209 122.5t-80 233.5q0 155 103 259t260 104q127 0 219.5 -72t121.5 -188 h-182q-21 46 -62.5 72t-96.5 26q-86 0 -138.5 -56t-52.5 -145t52.5 -145t138.5 -56z" unicode="Ç" glyph-name="Ccedilla"/>
<glyph horiz-adv-x="587" d="M424 843l-73 -73l-188 134l100 100zM552 538h-312v-104h284v-162h-284v-110h312v-162h-482v700h482v-162z" unicode="È" glyph-name="Egrave"/>
<glyph horiz-adv-x="587" d="M424 904l-188 -134l-73 73l161 161zM552 538h-312v-104h284v-162h-284v-110h312v-162h-482v700h482v-162z" unicode="É" glyph-name="Eacute"/>
<glyph horiz-adv-x="587" d="M294 852l-72 -82l-89 89l161 161l161 -161l-89 -89zM552 538h-312v-104h284v-162h-284v-110h312v-162h-482v700h482v-162z" unicode="Ê" glyph-name="Ecircumflex"/>
<glyph horiz-adv-x="587" d="M180 790q-40 0 -66.5 25t-26.5 64q0 38 26.5 63t66.5 25t66.5 -25t26.5 -63q0 -39 -26 -64t-67 -25zM407 790q-40 0 -66.5 25t-26.5 64q0 38 26.5 63t66.5 25q41 0 67.5 -25t26.5 -63q0 -39 -26.5 -64t-67.5 -25zM552 538h-312v-104h284v-162h-284v-110h312v-162h-482 v700h482v-162z" unicode="Ë" glyph-name="Edieresis"/>
<glyph horiz-adv-x="310" d="M124 1004l161 -161l-73 -73l-188 134zM70 0v700h170v-700h-170z" unicode="Ì" glyph-name="Igrave"/>
<glyph horiz-adv-x="310" d="M185 1004l100 -100l-188 -134l-73 73zM70 0v700h170v-700h-170z" unicode="Í" glyph-name="Iacute"/>
<glyph horiz-adv-x="310" d="M316 859l-89 -89l-72 82l-72 -82l-89 89l161 161zM70 0v700h170v-700h-170z" unicode="Î" glyph-name="Icircumflex"/>
<glyph horiz-adv-x="310" d="M41 967q40 0 66.5 -25t26.5 -63q0 -39 -26 -64t-67 -25q-40 0 -66.5 25t-26.5 64q0 38 26.5 63t66.5 25zM268 967q41 0 67.5 -25t26.5 -63q0 -39 -26.5 -64t-67.5 -25q-40 0 -66.5 25t-26.5 64q0 38 26.5 63t66.5 25zM70 0v700h170v-700h-170z" unicode="Ï" glyph-name="Idieresis"/>
<glyph horiz-adv-x="729" d="M331 700q153 0 255.5 -100.5t102.5 -249.5t-102.5 -249.5t-255.5 -100.5h-261v269h-51v162h51v269h261zM331 162q83 0 135.5 52.5t52.5 135.5q0 84 -52.5 136t-135.5 52h-91v-107h90v-162h-90v-107h91z" unicode="Ð" glyph-name="Eth"/>
<glyph horiz-adv-x="742" d="M315 816q-27 0 -27 -37h-100q0 167 120 167q34 0 72 -24q30 -19 47 -19q27 0 27 37h100q0 -167 -120 -167q-34 0 -72 24q-30 19 -47 19zM507 700h170v-700h-193l-263 441l14 -148v-293h-170v700h193l262 -441l-13 148v293z" unicode="Ñ" glyph-name="Ntilde"/>
<glyph horiz-adv-x="812" d="M375 1004l161 -161l-73 -73l-188 134zM406 713q155 0 260.5 -104.5t105.5 -258.5t-105.5 -258.5t-260.5 -104.5t-260.5 104.5t-105.5 258.5t105.5 258.5t260.5 104.5zM406 551q-84 0 -139 -56.5t-55 -144.5t55 -144.5t139 -56.5t139 56.5t55 144.5t-55 144.5t-139 56.5z " unicode="Ò" glyph-name="Ograve"/>
<glyph horiz-adv-x="812" d="M436 1004l100 -100l-188 -134l-73 73zM406 713q155 0 260.5 -104.5t105.5 -258.5t-105.5 -258.5t-260.5 -104.5t-260.5 104.5t-105.5 258.5t105.5 258.5t260.5 104.5zM406 551q-84 0 -139 -56.5t-55 -144.5t55 -144.5t139 -56.5t139 56.5t55 144.5t-55 144.5t-139 56.5z " unicode="Ó" glyph-name="Oacute"/>
<glyph horiz-adv-x="812" d="M567 859l-89 -89l-72 82l-72 -82l-89 89l161 161zM406 713q155 0 260.5 -104.5t105.5 -258.5t-105.5 -258.5t-260.5 -104.5t-260.5 104.5t-105.5 258.5t105.5 258.5t260.5 104.5zM406 551q-84 0 -139 -56.5t-55 -144.5t55 -144.5t139 -56.5t139 56.5t55 144.5t-55 144.5 t-139 56.5z" unicode="Ô" glyph-name="Ocircumflex"/>
<glyph horiz-adv-x="812" d="M489 940h100q0 -167 -120 -167q-34 0 -72 24q-30 19 -47 19q-27 0 -27 -37h-100q0 167 120 167q34 0 72 -24q30 -19 47 -19q27 0 27 37zM406 713q155 0 260.5 -104.5t105.5 -258.5t-105.5 -258.5t-260.5 -104.5t-260.5 104.5t-105.5 258.5t105.5 258.5t260.5 104.5z M406 551q-84 0 -139 -56.5t-55 -144.5t55 -144.5t139 -56.5t139 56.5t55 144.5t-55 144.5t-139 56.5z" unicode="Õ" glyph-name="Otilde"/>
<glyph horiz-adv-x="812" d="M292 967q40 0 66.5 -25t26.5 -63q0 -39 -26 -64t-67 -25q-40 0 -66.5 25t-26.5 64q0 38 26.5 63t66.5 25zM519 967q41 0 67.5 -25t26.5 -63q0 -39 -26.5 -64t-67.5 -25q-40 0 -66.5 25t-26.5 64q0 38 26.5 63t66.5 25zM406 713q155 0 260.5 -104.5t105.5 -258.5 t-105.5 -258.5t-260.5 -104.5t-260.5 104.5t-105.5 258.5t105.5 258.5t260.5 104.5zM406 551q-84 0 -139 -56.5t-55 -144.5t55 -144.5t139 -56.5t139 56.5t55 144.5t-55 144.5t-139 56.5z" unicode="Ö" glyph-name="Odieresis"/>
<glyph horiz-adv-x="641" d="M456 545l115 -115l-136 -136l136 -136l-115 -114l-136 136l-135 -136l-115 114l136 136l-136 136l115 115l135 -136z" unicode="×" glyph-name="multiply"/>
<glyph horiz-adv-x="812" d="M624 645q69 -50 108.5 -127t39.5 -168q0 -154 -105.5 -258.5t-260.5 -104.5q-40 0 -74 7l-13 -29h-172l41 91q-69 50 -108.5 126t-39.5 168q0 154 105.5 258.5t260.5 104.5q41 0 73 -7l13 29h172zM212 350q0 -80 47 -135l151 336h-4q-84 0 -139 -56.5t-55 -144.5z M406 149q84 0 139 56.5t55 144.5q0 80 -48 136l-151 -337h5z" unicode="Ø" glyph-name="Oslash"/>
<glyph horiz-adv-x="725" d="M332 1004l161 -161l-73 -73l-188 134zM487 700h173l-1 -414q0 -144 -81.5 -221.5t-212.5 -77.5t-212.5 77.5t-81.5 221.5l-1 414h173v-404q0 -147 122 -147t122 147v404z" unicode="Ù" glyph-name="Ugrave"/>
<glyph horiz-adv-x="725" d="M393 1004l100 -100l-188 -134l-73 73zM487 700h173l-1 -414q0 -144 -81.5 -221.5t-212.5 -77.5t-212.5 77.5t-81.5 221.5l-1 414h173v-404q0 -147 122 -147t122 147v404z" unicode="Ú" glyph-name="Uacute"/>
<glyph horiz-adv-x="725" d="M524 859l-89 -89l-72 82l-72 -82l-89 89l161 161zM487 700h173l-1 -414q0 -144 -81.5 -221.5t-212.5 -77.5t-212.5 77.5t-81.5 221.5l-1 414h173v-404q0 -147 122 -147t122 147v404z" unicode="Û" glyph-name="Ucircumflex"/>
<glyph horiz-adv-x="725" d="M249 967q40 0 66.5 -25t26.5 -63q0 -39 -26 -64t-67 -25q-40 0 -66.5 25t-26.5 64q0 38 26.5 63t66.5 25zM476 967q41 0 67.5 -25t26.5 -63q0 -39 -26.5 -64t-67.5 -25q-40 0 -66.5 25t-26.5 64q0 38 26.5 63t66.5 25zM487 700h173l-1 -414q0 -144 -81.5 -221.5 t-212.5 -77.5t-212.5 77.5t-81.5 221.5l-1 414h173v-404q0 -147 122 -147t122 147v404z" unicode="Ü" glyph-name="Udieresis"/>
<glyph horiz-adv-x="705" d="M483 904l-188 -134l-73 73l161 161zM680 700l-242 -476v-224h-170v222l-243 478h191l137 -285l137 285h190z" unicode="Ý" glyph-name="Yacute"/>
<glyph horiz-adv-x="662" d="M370 618q114 0 183 -63t69 -177t-69.5 -179t-182.5 -65h-130v-134h-170v700h170v-82h130zM363 296q87 0 87 80t-87 80h-123v-160h123z" unicode="Þ" glyph-name="Thorn"/>
<glyph horiz-adv-x="649" d="M495 402q56 -19 87.5 -71t31.5 -123q0 -103 -62.5 -162t-154.5 -59q-83 0 -144 26l34 156q51 -20 79 -20q36 0 56 19.5t20 53.5q0 72 -91 72h-74v162h68q22 0 41.5 21t19.5 58q0 36 -21 61t-68 25t-72 -27.5t-25 -79.5v-514h-170v518q0 124 72.5 194.5t194.5 70.5 q121 0 191 -66t70 -163q0 -102 -83 -152z" unicode="ß" glyph-name="germandbls"/>
<glyph d="M472 677l-73 -73l-188 134l100 100zM444 550h170l-1 -550h-170v59q-59 -72 -155 -72q-106 0 -177 81t-71 207t71.5 207t175.5 81q99 0 157 -75v62zM328 149q50 0 83 34.5t33 91.5q0 56 -33 91t-83 35t-83 -35t-33 -91q0 -57 33 -91.5t83 -34.5z" unicode="à" glyph-name="agrave"/>
<glyph d="M472 740l-188 -134l-73 73l161 161zM444 550h170l-1 -550h-170v59q-59 -72 -155 -72q-106 0 -177 81t-71 207t71.5 207t175.5 81q99 0 157 -75v62zM328 149q50 0 83 34.5t33 91.5q0 56 -33 91t-83 35t-83 -35t-33 -91q0 -57 33 -91.5t83 -34.5z" unicode="á" glyph-name="aacute"/>
<glyph d="M342 688l-72 -82l-89 89l161 161l161 -161l-89 -89zM444 550h170l-1 -550h-170v59q-59 -72 -155 -72q-106 0 -177 81t-71 207t71.5 207t175.5 81q99 0 157 -75v62zM328 149q50 0 83 34.5t33 91.5q0 56 -33 91t-83 35t-83 -35t-33 -91q0 -57 33 -91.5t83 -34.5z" unicode="â" glyph-name="acircumflex"/>
<glyph d="M286 661q-27 0 -27 -37h-100q0 167 120 167q34 0 72 -24q30 -19 47 -19q27 0 27 37h100q0 -167 -120 -167q-34 0 -72 24q-30 19 -47 19zM444 550h170l-1 -550h-170v59q-59 -72 -155 -72q-106 0 -177 81t-71 207t71.5 207t175.5 81q99 0 157 -75v62zM328 149q50 0 83 34.5 t33 91.5q0 56 -33 91t-83 35t-83 -35t-33 -91q0 -57 33 -91.5t83 -34.5z" unicode="ã" glyph-name="atilde"/>
<glyph d="M228 624q-40 0 -66.5 25t-26.5 64q0 38 26.5 63t66.5 25t66.5 -25t26.5 -63q0 -39 -26 -64t-67 -25zM455 624q-40 0 -66.5 25t-26.5 64q0 38 26.5 63t66.5 25q41 0 67.5 -25t26.5 -63q0 -39 -26.5 -64t-67.5 -25zM444 550h170l-1 -550h-170v59q-59 -72 -155 -72 q-106 0 -177 81t-71 207t71.5 207t175.5 81q99 0 157 -75v62zM328 149q50 0 83 34.5t33 91.5q0 56 -33 91t-83 35t-83 -35t-33 -91q0 -57 33 -91.5t83 -34.5z" unicode="ä" glyph-name="adieresis"/>
<glyph d="M341 606q-55 0 -94.5 39.5t-39.5 95.5q0 55 39.5 94.5t94.5 39.5q56 0 95.5 -39t39.5 -95t-39.5 -95.5t-95.5 -39.5zM341 781q-17 0 -28.5 -11.5t-10.5 -29.5q-1 -18 10.5 -29.5t28.5 -11.5t28.5 11.5t11.5 29.5t-11.5 29.5t-28.5 11.5zM444 550h170l-1 -550h-170v59 q-59 -72 -155 -72q-106 0 -177 81t-71 207t71.5 207t175.5 81q99 0 157 -75v62zM328 149q50 0 83 34.5t33 91.5q0 56 -33 91t-83 35t-83 -35t-33 -91q0 -57 33 -91.5t83 -34.5z" unicode="å" glyph-name="aring"/>
<glyph horiz-adv-x="1050" d="M734 563q135 0 216 -93.5t68 -230.5h-401q6 -60 39.5 -90.5t81.5 -30.5q35 0 61 16.5t36 45.5h175q-27 -97 -101.5 -145t-170.5 -48q-86 0 -155 39v-27h-140v59q-59 -72 -155 -72q-106 0 -177 81t-71 207t71.5 207t175.5 81q99 0 157 -75v62h140v-24q68 38 150 38z M733 432q-87 0 -111 -90h219q-9 41 -36.5 65.5t-71.5 24.5zM328 148q50 0 83 34.5t33 91.5q0 56 -33 91t-83 35t-83 -35t-33 -91q0 -57 33 -91.5t83 -34.5z" unicode="æ" glyph-name="ae"/>
<glyph horiz-adv-x="636" d="M328 144q37 0 65.5 18.5t37.5 55.5h175q-11 -96 -75.5 -155.5t-155.5 -72.5l-36 -66q76 -23 76 -90q0 -49 -42.5 -73t-117.5 -24q-35 0 -59 3v81q28 -4 39 -4q51 0 51 27t-70 40l47 110q-100 20 -161.5 97.5t-61.5 183.5q0 123 81.5 205.5t207.5 82.5q107 0 186 -61.5 t91 -168.5h-175q-18 73 -102 73q-55 0 -86 -36t-31 -95t31.5 -95t84.5 -36z" unicode="ç" glyph-name="ccedilla"/>
<glyph horiz-adv-x="646" d="M455 677l-73 -73l-188 134l100 100zM330 563q135 0 216 -93.5t68 -230.5h-401q6 -60 39.5 -90.5t81.5 -30.5q35 0 61 16.5t36 45.5h175q-27 -97 -101.5 -145t-170.5 -48q-130 0 -212 82t-82 206q0 123 81.5 205.5t208.5 82.5zM329 432q-87 0 -111 -90h219 q-9 41 -36.5 65.5t-71.5 24.5z" unicode="è" glyph-name="egrave"/>
<glyph horiz-adv-x="646" d="M455 740l-188 -134l-73 73l161 161zM330 563q135 0 216 -93.5t68 -230.5h-401q6 -60 39.5 -90.5t81.5 -30.5q35 0 61 16.5t36 45.5h175q-27 -97 -101.5 -145t-170.5 -48q-130 0 -212 82t-82 206q0 123 81.5 205.5t208.5 82.5zM329 432q-87 0 -111 -90h219 q-9 41 -36.5 65.5t-71.5 24.5z" unicode="é" glyph-name="eacute"/>
<glyph horiz-adv-x="646" d="M325 688l-72 -82l-89 89l161 161l161 -161l-89 -89zM330 563q135 0 216 -93.5t68 -230.5h-401q6 -60 39.5 -90.5t81.5 -30.5q35 0 61 16.5t36 45.5h175q-27 -97 -101.5 -145t-170.5 -48q-130 0 -212 82t-82 206q0 123 81.5 205.5t208.5 82.5zM329 432q-87 0 -111 -90h219 q-9 41 -36.5 65.5t-71.5 24.5z" unicode="ê" glyph-name="ecircumflex"/>
<glyph horiz-adv-x="646" d="M211 624q-40 0 -66.5 25t-26.5 64q0 38 26.5 63t66.5 25t66.5 -25t26.5 -63q0 -39 -26 -64t-67 -25zM438 624q-40 0 -66.5 25t-26.5 64q0 38 26.5 63t66.5 25q41 0 67.5 -25t26.5 -63q0 -39 -26.5 -64t-67.5 -25zM330 563q135 0 216 -93.5t68 -230.5h-401 q6 -60 39.5 -90.5t81.5 -30.5q35 0 61 16.5t36 45.5h175q-27 -97 -101.5 -145t-170.5 -48q-130 0 -212 82t-82 206q0 123 81.5 205.5t208.5 82.5zM329 432q-87 0 -111 -90h219q-9 41 -36.5 65.5t-71.5 24.5z" unicode="ë" glyph-name="edieresis"/>
<glyph horiz-adv-x="270" d="M104 838l161 -161l-73 -73l-188 134zM50 0v550h170v-550h-170z" unicode="ì" glyph-name="igrave"/>
<glyph horiz-adv-x="270" d="M165 840l100 -100l-188 -134l-73 73zM50 0v550h170v-550h-170z" unicode="í" glyph-name="iacute"/>
<glyph horiz-adv-x="270" d="M296 695l-89 -89l-72 82l-72 -82l-89 89l161 161zM50 0v550h170v-550h-170z" unicode="î" glyph-name="icircumflex"/>
<glyph horiz-adv-x="270" d="M21 801q40 0 66.5 -25t26.5 -63q0 -39 -26 -64t-67 -25q-40 0 -66.5 25t-26.5 64q0 38 26.5 63t66.5 25zM248 801q41 0 67.5 -25t26.5 -63q0 -39 -26.5 -64t-67.5 -25q-40 0 -66.5 25t-26.5 64q0 38 26.5 63t66.5 25zM50 0v550h170v-550h-170z" unicode="ï" glyph-name="idieresis"/>
<glyph horiz-adv-x="654" d="M614 657l-62 -53q62 -98 62 -250q0 -97 -24.5 -170t-67 -114.5t-94 -62t-110.5 -20.5q-120 0 -199 78t-79 204q0 116 68.5 188.5t169.5 72.5q105 0 159 -77q-18 92 -96 131t-227 39v160q196 0 314 -64l74 64zM326 133q50 0 83 34.5t33 91.5q0 56 -33 91t-83 35t-83 -35 t-33 -91q0 -57 33 -91.5t83 -34.5z" unicode="ð" glyph-name="eth"/>
<glyph horiz-adv-x="623" d="M256 661q-27 0 -27 -37h-100q0 167 120 167q34 0 72 -24q30 -19 47 -19q27 0 27 37h100q0 -167 -120 -167q-34 0 -72 24q-30 19 -47 19zM379 563q93 0 146 -59t53 -160v-344h-170v306q0 48 -19 71.5t-68 23.5q-101 0 -101 -109v-292h-170v550h170v-62q61 75 159 75z" unicode="ñ" glyph-name="ntilde"/>
<glyph horiz-adv-x="656" d="M297 838l161 -161l-73 -73l-188 134zM328 563q120 0 204 -82.5t84 -205.5q0 -124 -83 -206t-205 -82q-121 0 -204.5 82.5t-83.5 205.5t84 205.5t204 82.5zM328 401q-50 0 -83 -35t-33 -91q0 -57 33 -91.5t83 -34.5t83 34.5t33 91.5q0 56 -33 91t-83 35z" unicode="ò" glyph-name="ograve"/>
<glyph horiz-adv-x="656" d="M358 840l100 -100l-188 -134l-73 73zM328 563q120 0 204 -82.5t84 -205.5q0 -124 -83 -206t-205 -82q-121 0 -204.5 82.5t-83.5 205.5t84 205.5t204 82.5zM328 401q-50 0 -83 -35t-33 -91q0 -57 33 -91.5t83 -34.5t83 34.5t33 91.5q0 56 -33 91t-83 35z" unicode="ó" glyph-name="oacute"/>
<glyph horiz-adv-x="656" d="M489 695l-89 -89l-72 82l-72 -82l-89 89l161 161zM328 563q120 0 204 -82.5t84 -205.5q0 -124 -83 -206t-205 -82q-121 0 -204.5 82.5t-83.5 205.5t84 205.5t204 82.5zM328 401q-50 0 -83 -35t-33 -91q0 -57 33 -91.5t83 -34.5t83 34.5t33 91.5q0 56 -33 91t-83 35z" unicode="ô" glyph-name="ocircumflex"/>
<glyph horiz-adv-x="656" d="M411 785h100q0 -167 -120 -167q-34 0 -72 24q-30 19 -47 19q-27 0 -27 -37h-100q0 167 120 167q34 0 72 -24q30 -19 47 -19q27 0 27 37zM328 563q120 0 204 -82.5t84 -205.5q0 -124 -83 -206t-205 -82q-121 0 -204.5 82.5t-83.5 205.5t84 205.5t204 82.5zM328 401 q-50 0 -83 -35t-33 -91q0 -57 33 -91.5t83 -34.5t83 34.5t33 91.5q0 56 -33 91t-83 35z" unicode="õ" glyph-name="otilde"/>
<glyph horiz-adv-x="656" d="M214 801q40 0 66.5 -25t26.5 -63q0 -39 -26 -64t-67 -25q-40 0 -66.5 25t-26.5 64q0 38 26.5 63t66.5 25zM441 801q41 0 67.5 -25t26.5 -63q0 -39 -26.5 -64t-67.5 -25q-40 0 -66.5 25t-26.5 64q0 38 26.5 63t66.5 25zM328 563q120 0 204 -82.5t84 -205.5 q0 -124 -83 -206t-205 -82q-121 0 -204.5 82.5t-83.5 205.5t84 205.5t204 82.5zM328 401q-50 0 -83 -35t-33 -91q0 -57 33 -91.5t83 -34.5t83 34.5t33 91.5q0 56 -33 91t-83 35z" unicode="ö" glyph-name="odieresis"/>
<glyph horiz-adv-x="641" d="M320 602q45 0 74 -26.5t29 -68.5t-29 -68.5t-74 -26.5t-74 26.5t-29 68.5t29 68.5t74 26.5zM571 376v-162h-501v162h501zM320 177q45 0 74 -26.5t29 -68.5t-29 -68.5t-74 -26.5t-74 26.5t-29 68.5t29 68.5t74 26.5z" unicode="÷" glyph-name="divide"/>
<glyph horiz-adv-x="656" d="M535 478q81 -83 81 -203q0 -124 -83 -206t-205 -82q-68 0 -124 27l-10 -14h-125l52 72q-81 83 -81 203q0 123 84 205.5t204 82.5q65 0 124 -27l10 14h125zM212 275q0 -33 12 -59l130 182q-14 3 -26 3q-50 0 -83 -35t-33 -91zM328 149q50 0 83 34.5t33 91.5q0 33 -12 59 l-130 -182q14 -3 26 -3z" unicode="ø" glyph-name="oslash"/>
<glyph horiz-adv-x="619" d="M437 677l-73 -73l-188 134l100 100zM399 550h170v-550h-170v63q-61 -76 -158 -76q-91 0 -143.5 59t-52.5 160v344h170v-306q0 -48 18.5 -71.5t66.5 -23.5q99 0 99 109v292z" unicode="ù" glyph-name="ugrave"/>
<glyph horiz-adv-x="619" d="M437 740l-188 -134l-73 73l161 161zM399 550h170v-550h-170v63q-61 -76 -158 -76q-91 0 -143.5 59t-52.5 160v344h170v-306q0 -48 18.5 -71.5t66.5 -23.5q99 0 99 109v292z" unicode="ú" glyph-name="uacute"/>
<glyph horiz-adv-x="619" d="M307 688l-72 -82l-89 89l161 161l161 -161l-89 -89zM399 550h170v-550h-170v63q-61 -76 -158 -76q-91 0 -143.5 59t-52.5 160v344h170v-306q0 -48 18.5 -71.5t66.5 -23.5q99 0 99 109v292z" unicode="û" glyph-name="ucircumflex"/>
<glyph horiz-adv-x="619" d="M193 624q-40 0 -66.5 25t-26.5 64q0 38 26.5 63t66.5 25t66.5 -25t26.5 -63q0 -39 -26 -64t-67 -25zM420 624q-40 0 -66.5 25t-26.5 64q0 38 26.5 63t66.5 25q41 0 67.5 -25t26.5 -63q0 -39 -26.5 -64t-67.5 -25zM399 550h170v-550h-170v63q-61 -76 -158 -76 q-91 0 -143.5 59t-52.5 160v344h170v-306q0 -48 18.5 -71.5t66.5 -23.5q99 0 99 109v292z" unicode="ü" glyph-name="udieresis"/>
<glyph horiz-adv-x="636" d="M448 740l-188 -134l-73 73l161 161zM435 550h181l-351 -800h-181l143 326l-207 474h181l116 -287z" unicode="ý" glyph-name="yacute"/>
<glyph horiz-adv-x="669" d="M382 563q104 0 175.5 -81t71.5 -207t-71 -207t-177 -81q-96 0 -156 72v-309h-170v1020h170v-282q58 75 157 75zM341 149q50 0 83 34.5t33 91.5q0 56 -33 91t-83 35t-83 -35t-33 -91q0 -57 33 -91.5t83 -34.5z" unicode="þ" glyph-name="thorn"/>
</font>
</defs>
</svg>
