<?xml version="1.0" encoding="UTF-8" standalone="no"?>
<!DOCTYPE svg  PUBLIC '-//W3C//DTD SVG 1.1//EN'  'http://www.w3.org/Graphics/SVG/1.1/DTD/svg11.dtd'>
<svg xmlns="http://www.w3.org/2000/svg" version="1.1">
<defs>
<font id="Stolzl-Light" horiz-adv-x="682">
<font-face panose-1="0 0 4 0 0 0 0 0 0 0" units-per-em="1000" underline-thickness="50" ascent="800" unicode-range="U+0020-00FE" x-height="550" underline-position="-150" font-weight="300" font-family="Stolzl Light" cap-height="700" descent="-200" bbox="-58 -261 1098.12 1003"/>
<missing-glyph/>
<glyph unicode=" " glyph-name="space" horiz-adv-x="300"/>
<glyph unicode="!" glyph-name="exclam" horiz-adv-x="273" d="M164 700v-292l-4 -215h-47l-4 215v292h55zM136 73q18 0 30.5 -12t12.5 -29q0 -18 -12.5 -30.5t-30.5 -12.5t-30 12.5t-12 30.5q0 17 12 29t30 12z"/>
<glyph unicode='&quot;' glyph-name="quotedbl" horiz-adv-x="397" d="M100 377l-6 193v130h53v-130l-7 -193h-40zM257 377l-7 193v130h53v-130l-6 -193h-40z"/>
<glyph unicode="#" glyph-name="numbersign" horiz-adv-x="895" d="M789 496h-160l-52 -199h160l-12 -45h-160l-66 -252h-50l66 252h-212l-66 -252h-50l66 252h-159l12 45h159l53 199h-160l12 45h160l60 229h50l-60 -229h211l61 229h50l-61 -229h160zM527 297l52 199h-211l-53 -199h212z"/>
<glyph unicode="$" glyph-name="dollar" horiz-adv-x="638" d="M591 190q0 -96 -69 -147.5t-176 -53.5v-113h-53v116q-106 10 -167.5 66t-78.5 145h53q42 -164 238 -164q92 0 146 39t54 109q0 62 -47 88.5t-170 53.5q-67 15 -108 28.5t-77.5 34.5t-52.5 51t-16 73q0 89 66 140.5t168 53.5v114h53v-115q92 -9 149 -54t77 -115h-53 q-50 121 -214 121q-87 0 -140 -38t-53 -109q0 -51 44 -78t169 -55q56 -12 88.5 -21t69.5 -24.5t55.5 -33.5t31.5 -46.5t13 -65.5z"/>
<glyph unicode="%" glyph-name="percent" horiz-adv-x="1046" d="M270 290q-80 0 -128 54t-48 156q0 103 48 157t128 54t128.5 -54t48.5 -157q0 -102 -48.5 -156t-128.5 -54zM750 700l-400 -700h-54l400 700h54zM270 334q59 0 93.5 41.5t34.5 124.5q0 84 -34 125t-94 41t-94 -41t-34 -125q0 -83 34.5 -124.5t93.5 -41.5zM776 410 q80 0 128.5 -54t48.5 -156q0 -103 -48.5 -157t-128.5 -54t-128 54t-48 157q0 102 48 156t128 54zM776 366q-59 0 -93.5 -41.5t-34.5 -124.5q0 -84 34 -125t94 -41t94 41t34 125q0 83 -34.5 124.5t-93.5 41.5z"/>
<glyph unicode="&amp;" glyph-name="ampersand" horiz-adv-x="670" d="M623 0h-67l-73 76q-85 -87 -213 -87q-101 0 -162 48.5t-61 131.5q0 33 10.5 59.5t37 51.5t48 40.5t66.5 44.5q-53 62 -74 103t-21 81q0 73 50 117.5t128 44.5q75 0 119.5 -41.5t44.5 -106.5q0 -56 -39 -99t-131 -106q-2 -2 -3 -2q13 -15 195 -205q44 67 59 166h54 q-15 -121 -76 -204q26 -26 108 -113zM167 547q0 -33 18 -66.5t66 -88.5q9 5 16 11q81 56 108 88.5t27 70.5q0 44 -29 71.5t-81 27.5q-57 0 -91 -30.5t-34 -83.5zM274 39q106 0 174 73q-160 165 -206 216q-44 -29 -61.5 -42t-41 -34t-31.5 -40t-8 -43q0 -58 46 -94t128 -36z "/>
<glyph unicode="&apos;" glyph-name="quotesingle" horiz-adv-x="241" d="M147 700v-130l-7 -193h-40l-6 193v130h53z"/>
<glyph unicode="(" glyph-name="parenleft" horiz-adv-x="382" d="M288 757q-76 -141 -108.5 -255t-32.5 -242t32.5 -242t108.5 -255l-40 -24q-154 260 -154 521t154 521z"/>
<glyph unicode=")" glyph-name="parenright" horiz-adv-x="382" d="M94 757l41 24q153 -258 153 -521t-153 -521l-41 24q76 141 108.5 255t32.5 242t-32.5 242t-108.5 255z"/>
<glyph unicode="*" glyph-name="asterisk" horiz-adv-x="552" d="M458 568l-149 -58l103 -123l-34 -27l-102 124l-103 -124l-33 27l102 123l-148 58l16 39l145 -56v149h41v-149l145 56z"/>
<glyph unicode="+" glyph-name="plus" horiz-adv-x="689" d="M371 545v-220h224v-51h-224v-219h-53v219h-224v51h224v220h53z"/>
<glyph unicode="," glyph-name="comma" horiz-adv-x="300" d="M206 30q2 -24 -70 -202h-42l61 162q-34 7 -34 40q0 19 12.5 31t30.5 12q16 0 29 -10.5t13 -32.5z"/>
<glyph unicode="-" glyph-name="hyphen" horiz-adv-x="504" d="M411 329v-51h-317v51h317z"/>
<glyph unicode="." glyph-name="period" horiz-adv-x="273" d="M136 73q18 0 30.5 -12t12.5 -29q0 -18 -12.5 -30.5t-30.5 -12.5t-30 12.5t-12 30.5q0 17 12 29t30 12z"/>
<glyph unicode="/" glyph-name="slash" horiz-adv-x="309" d="M283 770l-203 -770h-54l203 770h54z"/>
<glyph unicode="0" glyph-name="zero" horiz-adv-x="673" d="M336 711q130 0 201.5 -93.5t71.5 -267.5t-71.5 -267.5t-201.5 -93.5q-129 0 -200.5 93t-71.5 268t71.5 268t200.5 93zM336 40q101 0 160 74.5t59 235.5t-59 235.5t-160 74.5q-100 0 -159 -74.5t-59 -235.5t59 -235.5t159 -74.5z"/>
<glyph unicode="1" glyph-name="one" horiz-adv-x="348" d="M229 700h25v-700h-53v638l-164 -66v53z"/>
<glyph unicode="2" glyph-name="two" horiz-adv-x="614" d="M134 51h433v-51h-520v39l202 176q154 135 190 176q53 60 53 118q0 67 -50.5 109t-132.5 42t-133.5 -44t-69.5 -121h-54q19 100 88.5 158t171.5 58q103 0 168.5 -56.5t65.5 -143.5q0 -31 -11 -60t-25.5 -52.5t-52.5 -61.5t-68.5 -65.5t-96.5 -84.5l-157 -135z"/>
<glyph unicode="3" glyph-name="three" horiz-adv-x="611" d="M429 370q64 -18 99.5 -65t35.5 -113q0 -91 -68.5 -147t-176.5 -56q-105 0 -179.5 51.5t-92.5 150.5h54q19 -77 77 -114t141 -37q86 0 139 42.5t53 113.5q0 65 -44.5 104.5t-136.5 39.5h-99v48h73q92 0 137.5 33.5t45.5 92.5q0 67 -51 106.5t-128 39.5q-76 0 -124.5 -32.5 t-69.5 -108.5h-54q42 192 249 192q98 0 164.5 -53.5t66.5 -138.5q0 -52 -28.5 -91.5t-82.5 -57.5z"/>
<glyph unicode="4" glyph-name="four" horiz-adv-x="622" d="M585 226v-50h-106v-176h-53v176l-389 -1v51l361 474h81v-474h106zM98 226h328v424h-6z"/>
<glyph unicode="5" glyph-name="five" horiz-adv-x="614" d="M327 458q103 0 171.5 -63.5t68.5 -166.5q0 -102 -71.5 -170.5t-176.5 -68.5q-103 0 -177.5 55.5t-94.5 153.5h54q19 -74 77.5 -116t140.5 -42q84 0 139 54t55 135q0 82 -54.5 132.5t-138.5 50.5q-127 0 -192 -107h-51l84 395h374v-51h-334l-56 -266q69 75 182 75z"/>
<glyph unicode="6" glyph-name="six" horiz-adv-x="608" d="M317 469q101 0 172.5 -64.5t71.5 -171.5q0 -108 -74 -176t-185 -68q-109 0 -182 67t-73 182q0 80 48.5 162.5t210.5 299.5h61l-205 -280q73 49 155 49zM303 40q87 0 145.5 53.5t58.5 139.5q0 88 -58 140t-144 52q-90 0 -147.5 -52.5t-57.5 -141.5q0 -86 58.5 -138.5 t144.5 -52.5z"/>
<glyph unicode="7" glyph-name="seven" horiz-adv-x="540" d="M37 700h466v-43l-324 -657h-60l322 649h-404v51z"/>
<glyph unicode="8" glyph-name="eight" horiz-adv-x="602" d="M418 370q65 -19 101 -67.5t36 -115.5q0 -91 -72.5 -144.5t-181.5 -53.5t-181.5 53.5t-72.5 144.5q0 67 36 115.5t101 67.5q-111 38 -111 153q0 84 65.5 136t162.5 52t162.5 -52t65.5 -136q0 -115 -111 -153zM126 517q0 -59 42.5 -93.5t132.5 -34.5q89 0 132 34.5t43 93.5 q0 67 -49 105t-126 38t-126 -38t-49 -105zM301 40q88 0 144.5 40t56.5 111q0 150 -201 150t-201 -150q0 -71 56 -111t145 -40z"/>
<glyph unicode="9" glyph-name="nine" horiz-adv-x="608" d="M305 711q109 0 182.5 -67t73.5 -182q0 -80 -48.5 -162.5t-210.5 -299.5h-61l205 280q-73 -49 -156 -49q-100 0 -171.5 64.5t-71.5 171.5q0 109 73.5 176.5t184.5 67.5zM100 467q0 -87 58.5 -139.5t144.5 -52.5q90 0 147 52.5t57 141.5q0 86 -58 138.5t-144 52.5 q-87 0 -146 -53.5t-59 -139.5z"/>
<glyph unicode=":" glyph-name="colon" horiz-adv-x="273" d="M136 493q18 0 30.5 -12t12.5 -30q0 -17 -12.5 -29t-30.5 -12t-30 12t-12 29q0 18 12 30t30 12zM136 73q18 0 30.5 -12t12.5 -29q0 -18 -12.5 -30.5t-30.5 -12.5t-30 12.5t-12 30.5q0 17 12 29t30 12z"/>
<glyph unicode=";" glyph-name="semicolon" horiz-adv-x="300" d="M164 410q-18 0 -30.5 12t-12.5 29q0 18 12.5 30t30.5 12t30 -12t12 -30q0 -17 -12 -29t-30 -12zM206 30q2 -24 -70 -202h-42l61 162q-34 7 -34 40q0 19 12.5 31t30.5 12q16 0 29 -10.5t13 -32.5z"/>
<glyph unicode="&lt;" glyph-name="less" horiz-adv-x="689" d="M595 500v-55l-420 -140l420 -141v-56l-501 176v41z"/>
<glyph unicode="=" glyph-name="equal" horiz-adv-x="689" d="M595 431v-50h-501v50h501zM595 228v-49h-501v49h501z"/>
<glyph unicode="&gt;" glyph-name="greater" horiz-adv-x="689" d="M94 500l501 -174v-42l-501 -176v56l420 141l-420 140v55z"/>
<glyph unicode="?" glyph-name="question" horiz-adv-x="571" d="M244 193v51q0 17 3.5 31.5t14 27t16.5 20t26 19.5t27 16t33 17q56 29 81.5 57t25.5 78q0 69 -49 110t-134 41q-166 0 -187 -164h-54q12 107 77 160.5t165 53.5q106 0 170.5 -54.5t64.5 -145.5q0 -66 -33.5 -103.5t-97.5 -70.5q-61 -32 -77 -51q-19 -22 -19 -50v-43h-53z M273 -11q-18 0 -30.5 12.5t-12.5 30.5t12.5 29.5t30.5 11.5t30.5 -11.5t12.5 -29.5t-12.5 -30.5t-30.5 -12.5z"/>
<glyph unicode="@" glyph-name="at" horiz-adv-x="1150" d="M584 781q140 0 252.5 -57.5t181 -173.5t68.5 -274q0 -137 -50 -210.5t-134 -73.5q-55 0 -96.5 32.5t-47.5 96.5q-30 -60 -84.5 -94.5t-123.5 -34.5q-102 0 -167.5 72t-65.5 183q0 112 65 183.5t167 71.5q69 0 123.5 -34t84.5 -94v119h49v-352q0 -51 28 -76.5t69 -25.5 q57 0 95 56.5t38 175.5q0 113 -36 202.5t-98.5 145.5t-143.5 85.5t-174 29.5q-206 0 -338.5 -133t-132.5 -350q0 -215 130.5 -340t332.5 -125q120 0 216 47l10 -47q-107 -47 -227 -47q-146 0 -261.5 60.5t-182.5 178t-67 273.5q0 238 147 384t373 146zM557 39q85 0 142 59 t57 149t-57 149t-142 59q-84 0 -137.5 -58.5t-53.5 -149.5t53.5 -149.5t137.5 -58.5z"/>
<glyph unicode="A" glyph-name="A" horiz-adv-x="723" d="M629 0l-95 233h-345l-95 -233h-57l289 700h71l289 -700h-57zM210 283h303l-152 369z"/>
<glyph unicode="B" glyph-name="B" horiz-adv-x="654" d="M478 371q129 -36 129 -180q0 -89 -56.5 -140t-169.5 -51h-287v700h279q212 0 212 -176q0 -116 -107 -153zM532 519q0 63 -37.5 96.5t-125.5 33.5h-222v-260h216q92 0 130.5 33.5t38.5 96.5zM380 51q173 0 173 143q0 71 -41 108.5t-134 37.5h-231v-289h233z"/>
<glyph unicode="C" glyph-name="C" horiz-adv-x="800" d="M425 -11q-155 0 -257.5 102.5t-102.5 258.5t102.5 258.5t257.5 102.5q114 0 202 -61t126 -165h-57q-36 80 -108.5 127.5t-164.5 47.5q-129 0 -217 -89t-88 -221t88 -221t217 -89q92 0 164.5 47.5t108.5 127.5h57q-38 -104 -126 -165t-202 -61z"/>
<glyph unicode="D" glyph-name="D" horiz-adv-x="746" d="M323 700q154 0 256.5 -98.5t102.5 -251.5q0 -152 -103 -251t-256 -99h-229v700h229zM325 51q129 0 216 84t88 215q0 130 -87.5 214.5t-216.5 84.5h-178v-598h178z"/>
<glyph unicode="E" glyph-name="E" horiz-adv-x="573" d="M526 649h-379v-262h356v-51h-356v-285h379v-51h-432v700h432v-51z"/>
<glyph unicode="F" glyph-name="F" horiz-adv-x="573" d="M526 649h-379v-266h356v-50h-356v-333h-53v700h432v-51z"/>
<glyph unicode="G" glyph-name="G" horiz-adv-x="846" d="M391 356h366v-356h-48v187q-28 -93 -106 -145.5t-182 -52.5q-153 0 -255 103t-102 258q0 156 103 258.5t256 102.5q115 0 202.5 -60.5t126.5 -163.5h-57q-36 79 -108.5 126t-164.5 47q-129 0 -217 -89.5t-88 -222.5q0 -131 87 -220t219 -89q120 0 199 75t82 195h-313v47z "/>
<glyph unicode="H" glyph-name="H" horiz-adv-x="747" d="M601 700h53v-700h-53v337h-454v-337h-53v700h53v-312h454v312z"/>
<glyph unicode="I" glyph-name="I" horiz-adv-x="242" d="M95 0v700h53v-700h-53z"/>
<glyph unicode="J" glyph-name="J" horiz-adv-x="546" d="M399 700h53v-487q0 -105 -57 -164.5t-151 -59.5t-150.5 57.5t-56.5 161.5v50h53v-49q0 -83 41.5 -126t113.5 -43q70 0 112 44.5t42 129.5v486z"/>
<glyph unicode="K" glyph-name="K" horiz-adv-x="616" d="M579 0h-70l-362 344v-344h-53v700h53v-335l352 335h70l-361 -344z"/>
<glyph unicode="L" glyph-name="L" horiz-adv-x="539" d="M147 51h356v-51h-409v700h53v-649z"/>
<glyph unicode="M" glyph-name="M" horiz-adv-x="812" d="M647 700h71v-700h-53v638l-259 -389h-6l-258 389v-638h-53v700h70l245 -366z"/>
<glyph unicode="N" glyph-name="N" horiz-adv-x="737" d="M595 700h53v-700h-71l-439 636l4 -343v-293h-53v700h70l440 -636l-4 343v293z"/>
<glyph unicode="O" glyph-name="O" horiz-adv-x="847" d="M424 711q153 0 256 -103.5t103 -257.5t-103 -257.5t-256 -103.5t-256.5 103.5t-103.5 257.5t104 257.5t256 103.5zM424 660q-129 0 -217.5 -89t-88.5 -221t88.5 -221t217.5 -89t217.5 89t87.5 221q1 132 -87.5 221t-217.5 89z"/>
<glyph unicode="P" glyph-name="P" horiz-adv-x="671" d="M368 700q114 0 176.5 -62t62.5 -157q0 -94 -63 -158t-176 -64h-220v-259h-54v700h274zM367 310q91 0 138.5 49t47.5 122t-47 120.5t-139 47.5h-219v-339h219z"/>
<glyph unicode="Q" glyph-name="Q" horiz-adv-x="847" d="M783 350q0 -83 -32 -154.5t-90 -120.5l122 -162l-41 -31l-123 162q-86 -55 -195 -55q-153 0 -256.5 103.5t-103.5 257.5t104 257.5t256 103.5q153 0 256 -103.5t103 -257.5zM424 40q129 0 217.5 89t87.5 221q1 132 -87.5 221t-217.5 89t-217.5 -89t-88.5 -221t88.5 -221 t217.5 -89z"/>
<glyph unicode="R" glyph-name="R" horiz-adv-x="654" d="M550 0l-241 280h-161v-280h-54v700h265q114 0 175 -58.5t61 -150.5q0 -90 -57 -147.5t-163 -62.5l242 -281h-67zM148 649v-321h207q92 0 139.5 45.5t47.5 116.5t-47 115t-140 44h-207z"/>
<glyph unicode="S" glyph-name="S" horiz-adv-x="638" d="M333 381q56 -12 88.5 -21t69.5 -24.5t55.5 -33.5t31.5 -46.5t13 -65.5q0 -97 -71 -149t-180 -52q-127 0 -200.5 58t-92.5 156h53q42 -164 238 -164q92 0 146 39t54 109q0 62 -47 88.5t-170 53.5q-67 15 -108 28.5t-77.5 34.5t-52.5 51t-16 73q0 90 69.5 142.5t174.5 52.5 q110 0 178 -46t91 -125h-53q-50 121 -214 121q-87 0 -140 -39t-53 -108q0 -51 44 -78t169 -55z"/>
<glyph unicode="T" glyph-name="T" horiz-adv-x="603" d="M566 700v-51h-238v-649h-53v649h-238v51h529z"/>
<glyph unicode="U" glyph-name="U" horiz-adv-x="725" d="M582 700h54v-428q0 -138 -75.5 -210.5t-195.5 -72.5t-195.5 72.5t-75.5 210.5v428h54v-425q0 -116 60 -175.5t157 -59.5t157 59.5t60 175.5v425z"/>
<glyph unicode="V" glyph-name="V" horiz-adv-x="668" d="M575 700h56l-262 -700h-70l-262 700h56l241 -645z"/>
<glyph unicode="W" glyph-name="W" horiz-adv-x="990" d="M898 700h55l-203 -700h-70l-74 253l-106 381h-10l-106 -381l-73 -253h-70l-204 700h55l98 -335l86 -310l87 310l97 335h71l97 -335l86 -311l87 311z"/>
<glyph unicode="X" glyph-name="X" horiz-adv-x="607" d="M571 0h-64l-203 313l-204 -313h-63l234 358l-224 342h64l193 -298l194 298h64l-225 -343z"/>
<glyph unicode="Y" glyph-name="Y" horiz-adv-x="656" d="M619 700l-264 -438v-262h-54v260l-264 440h61l230 -380l230 380h61z"/>
<glyph unicode="Z" glyph-name="Z" horiz-adv-x="594" d="M112 51h435v-51h-500v51l434 598h-416v51h482v-51z"/>
<glyph unicode="[" glyph-name="bracketleft" horiz-adv-x="382" d="M288 770v-51h-140v-918h140v-51h-194v1020h194z"/>
<glyph unicode="\" glyph-name="backslash" horiz-adv-x="445" d="M148 770l203 -770h-54l-203 770h54z"/>
<glyph unicode="]" glyph-name="bracketright" horiz-adv-x="382" d="M94 770h194v-1020h-194v51h140v918h-140v51z"/>
<glyph unicode="^" glyph-name="asciicircum" horiz-adv-x="555" d="M277 711l184 -184l-37 -37l-147 146l-146 -146l-37 37z"/>
<glyph unicode="_" glyph-name="underscore" horiz-adv-x="648" d="M554 -19v-50h-460v50h460z"/>
<glyph unicode="`" glyph-name="grave" horiz-adv-x="388" d="M128 840l166 -166l-29 -29l-171 161z"/>
<glyph unicode="a" glyph-name="a" d="M547 550h53v-550h-53v131q-33 -65 -93.5 -103.5t-136.5 -38.5q-115 0 -188 81t-73 205t73 205t187 81q77 0 137.5 -38.5t93.5 -104.5v132zM324 40q96 0 160 66.5t64 168.5t-64 168.5t-160 66.5q-95 0 -155 -66.5t-60 -168.5t60 -168.5t155 -66.5z"/>
<glyph unicode="b" glyph-name="b" d="M366 561q114 0 187 -81t73 -205t-73 -205t-187 -81q-77 0 -137.5 38.5t-93.5 104.5v-132h-53v770h53v-352q33 66 93.5 104.5t137.5 38.5zM358 40q95 0 155 66.5t60 168.5q0 103 -60 169t-155 66q-96 0 -160 -66.5t-64 -168.5t64 -168.5t160 -66.5z"/>
<glyph unicode="c" glyph-name="c" horiz-adv-x="648" d="M338 -11q-119 0 -200.5 81.5t-81.5 204.5t81.5 204.5t201.5 81.5q94 0 166 -52.5t97 -141.5h-56q-22 65 -78 104.5t-129 39.5q-98 0 -164 -67t-66 -169q0 -101 66 -168.5t163 -67.5q73 0 129.5 39.5t78.5 104.5h56q-25 -89 -97.5 -141.5t-166.5 -52.5z"/>
<glyph unicode="d" glyph-name="d" horiz-adv-x="684" d="M550 770h53v-770h-53v132q-34 -66 -94.5 -104.5t-136.5 -38.5q-115 0 -188 81t-73 205t73 205t187 81q77 0 137.5 -38.5t94.5 -104.5v352zM326 40q96 0 160 66.5t64 168.5t-64 168.5t-160 66.5q-95 0 -155 -66.5t-60 -168.5t60 -168.5t155 -66.5z"/>
<glyph unicode="e" glyph-name="e" horiz-adv-x="654" d="M334 561q126 0 200 -84t72 -219h-496q4 -101 67.5 -159.5t160.5 -58.5q67 0 119 28t79 81h55q-33 -78 -101 -119t-153 -41q-123 0 -202 79t-79 205t78.5 207t199.5 81zM334 511q-90 0 -151 -56.5t-72 -146.5h439q-10 90 -68.5 146.5t-147.5 56.5z"/>
<glyph unicode="f" glyph-name="f" horiz-adv-x="471" d="M338 733q-147 0 -147 -179v-4h242v-50h-242v-500h-53v500h-110v50h110v6q0 105 51 165t144 60q60 0 112 -22l-10 -46l-10 4q-41 16 -87 16z"/>
<glyph unicode="g" glyph-name="g" d="M547 550h53v-544q0 -124 -68.5 -195.5t-186.5 -71.5q-97 0 -169.5 51t-95.5 140h56q20 -65 75.5 -103.5t132.5 -38.5q97 0 150 57t53 159v129q-33 -65 -94 -103.5t-136 -38.5q-115 0 -188 80.5t-73 204.5t73.5 204.5t187.5 80.5q75 0 136 -39t94 -104v132zM324 42 q96 0 160 66.5t64 167.5t-64 167.5t-160 66.5q-95 0 -155 -66t-60 -168t60 -168t155 -66z"/>
<glyph unicode="h" glyph-name="h" horiz-adv-x="627" d="M351 561q94 0 146.5 -55t52.5 -156v-350h-53v343q0 82 -41.5 124.5t-116.5 42.5q-94 0 -146.5 -63.5t-52.5 -168.5v-278h-53v770h53v-347q59 138 211 138z"/>
<glyph unicode="i" glyph-name="i" horiz-adv-x="217" d="M108 786q19 0 31 -12t12 -29q0 -18 -12 -30t-31 -12q-17 0 -29.5 12t-12.5 30q0 17 12.5 29t29.5 12zM82 0v550h53v-550h-53z"/>
<glyph unicode="j" glyph-name="j" horiz-adv-x="217" d="M108 786q19 0 31 -12t12 -29q0 -18 -12 -30t-31 -12q-17 0 -29.5 12t-12.5 30q0 17 12.5 29t29.5 12zM82 -250v800h53v-800h-53z"/>
<glyph unicode="k" glyph-name="k" horiz-adv-x="569" d="M541 0h-73l-328 276v-276h-53v770h53v-471l299 251h72l-311 -260z"/>
<glyph unicode="l" glyph-name="l" horiz-adv-x="217" d="M86 0v770h54v-770h-54z"/>
<glyph unicode="m" glyph-name="m" horiz-adv-x="944" d="M688 561q86 0 132.5 -51.5t46.5 -147.5v-362h-53v354q0 156 -138 156q-84 0 -129.5 -66.5t-45.5 -165.5l1 -278h-54v354q0 156 -138 156q-84 0 -129.5 -66.5t-45.5 -165.5l1 -278h-54v550h54v-124q55 135 186 135q72 0 116.5 -36.5t57.5 -105.5q54 142 192 142z"/>
<glyph unicode="n" glyph-name="n" horiz-adv-x="621" d="M346 561q93 0 145.5 -55t52.5 -156v-350h-53v343q0 82 -41 124.5t-115 42.5q-94 0 -147 -63.5t-53 -168.5v-278h-53v550h53v-129q59 140 211 140z"/>
<glyph unicode="o" glyph-name="o" horiz-adv-x="675" d="M338 561q118 0 200 -81.5t82 -204.5q0 -122 -81.5 -204t-200.5 -82t-200.5 82t-81.5 204t82 204t200 82zM338 510q-96 0 -162 -66.5t-66 -168.5q0 -101 66 -168t162 -67t162 67t66 168q0 102 -66 168.5t-162 66.5z"/>
<glyph unicode="p" glyph-name="p" horiz-adv-x="687" d="M371 561q114 0 187 -81t73 -205t-73 -205t-187 -81q-77 0 -137.5 38.5t-93.5 104.5v-382h-53v800h53v-132q33 66 93.5 104.5t137.5 38.5zM363 40q95 0 155 66.5t60 168.5q0 103 -60 169t-155 66q-96 0 -160 -66.5t-64 -168.5t64 -168.5t160 -66.5z"/>
<glyph unicode="q" glyph-name="q" d="M547 550h53v-800h-53v382q-33 -66 -93.5 -104.5t-136.5 -38.5q-115 0 -188 81t-73 205t73 205t187 81q77 0 137.5 -38.5t93.5 -104.5v132zM324 40q96 0 160 66.5t64 168.5t-64 168.5t-160 66.5q-95 0 -155 -66.5t-60 -168.5t60 -168.5t155 -66.5z"/>
<glyph unicode="r" glyph-name="r" horiz-adv-x="407" d="M343 561q23 0 36 -3v-53q-18 2 -35 2q-95 0 -152 -65t-57 -175v-267h-53v550h53v-137q25 68 78 108t130 40z"/>
<glyph unicode="s" glyph-name="s" horiz-adv-x="562" d="M300 -11q-107 0 -176 48t-86 135h54q35 -132 207 -132q72 0 119 28t47 79q0 29 -22 48.5t-47 28t-88 24.5q-15 4 -23 6q-126 32 -171.5 60.5t-45.5 87.5q0 74 59.5 116.5t153.5 42.5q90 0 150.5 -40t78.5 -112h-54q-37 101 -174 101q-71 0 -116 -28.5t-45 -75.5 q0 -40 35.5 -57.5t145.5 -45.5q44 -11 66 -17.5t52 -16.5t44 -20t29 -24t20.5 -32.5t5.5 -41.5q0 -78 -62.5 -120t-156.5 -42z"/>
<glyph unicode="t" glyph-name="t" horiz-adv-x="510" d="M461 66l10 -45q-64 -32 -140 -32q-91 0 -142 58t-51 162v291h-110v50h110v138l53 12v-150h269v-50h-269v-289q0 -83 37 -127.5t111 -44.5q56 0 122 27z"/>
<glyph unicode="u" glyph-name="u" horiz-adv-x="612" d="M481 550h53v-550h-53v129q-60 -140 -209 -140q-92 0 -143.5 55.5t-51.5 155.5v350h53v-343q0 -82 39.5 -124.5t113.5 -42.5q92 0 145 63.5t53 168.5v278z"/>
<glyph unicode="v" glyph-name="v" horiz-adv-x="557" d="M472 550h57l-216 -550h-69l-216 550h57l193 -500z"/>
<glyph unicode="w" glyph-name="w" horiz-adv-x="825" d="M743 550h54l-168 -550h-67l-57 185l-88 307h-10l-87 -306l-57 -186h-67l-168 550h54l53 -173l95 -323l96 323l52 173h68l53 -173l95 -321l96 321z"/>
<glyph unicode="x" glyph-name="x" horiz-adv-x="528" d="M500 0h-64l-172 241l-171 -241h-65l203 283l-191 267h64l161 -226l159 226h65l-192 -267z"/>
<glyph unicode="y" glyph-name="y" horiz-adv-x="572" d="M487 550h57l-377 -800h-58l148 313l-229 487h57l200 -428z"/>
<glyph unicode="z" glyph-name="z" horiz-adv-x="536" d="M110 50l383 1v-51h-450v51l381 449l-360 -1v51h427v-51z"/>
<glyph unicode="{" glyph-name="braceleft" horiz-adv-x="486" d="M271 457q0 -85 -20 -132.5t-73 -64.5q53 -17 73 -64.5t20 -132.5v-67q0 -111 23.5 -158t98.5 -48v-51q-94 0 -134.5 61.5t-40.5 182.5v70q0 38 -1.5 61.5t-8 49t-18 39t-33 22.5t-52.5 9h-11v52h11q31 0 52.5 9t33 22.5t18 39t8 49t1.5 61.5v70q0 121 40.5 182.5 t134.5 61.5v-51q-75 -1 -98.5 -48t-23.5 -158v-67z"/>
<glyph unicode="|" glyph-name="bar" horiz-adv-x="241" d="M147 700v-794h-53v794h53z"/>
<glyph unicode="}" glyph-name="braceright" horiz-adv-x="486" d="M382 286h11v-52h-11q-31 0 -52.5 -9t-33.5 -22.5t-18.5 -39t-8 -49t-1.5 -61.5v-70q0 -121 -40 -182.5t-134 -61.5v51q75 1 98 48t23 158v67q0 85 20 132.5t73 64.5q-53 17 -73 64.5t-20 132.5v67q0 111 -23 158t-98 48v51q94 0 134 -61.5t40 -182.5v-70q0 -38 1.5 -61.5 t8 -49t18.5 -39t33.5 -22.5t52.5 -9z"/>
<glyph unicode="~" glyph-name="asciitilde" horiz-adv-x="638" d="M432 255q-23 0 -46.5 10t-37 20t-36.5 30q-4 3 -17.5 14t-20 15.5t-18 11.5t-22.5 10t-22 3q-35 0 -53 -27t-18 -72h-47q0 71 30 109t82 38q23 0 46.5 -10t36.5 -19.5t37 -29.5q4 -3 17.5 -14t20 -15.5t18 -11.5t22.5 -10t22 -3q35 0 53 27t18 72h47q0 -71 -30.5 -109.5 t-81.5 -38.5z"/>
<glyph unicode="¡" glyph-name="exclamdown" horiz-adv-x="273" d="M136 381q-18 0 -30 12t-12 29q0 18 12 30.5t30 12.5t30.5 -12.5t12.5 -30.5q0 -17 -12.5 -29t-30.5 -12zM164 -246h-55v292l4 215h47l4 -215v-292z"/>
<glyph unicode="¢" glyph-name="cent" horiz-adv-x="648" d="M338 39q73 0 129.5 39.5t78.5 104.5h56q-23 -82 -87.5 -133.5t-150.5 -58.5v-141h-53v141q-110 10 -182.5 89.5t-72.5 194.5t72.5 194.5t182.5 89.5v141h53v-140q86 -8 150.5 -59.5t87.5 -133.5h-56q-22 65 -78 104.5t-129 39.5q-98 0 -164 -67t-66 -169 q0 -101 66 -168.5t163 -67.5z"/>
<glyph unicode="£" glyph-name="sterling" horiz-adv-x="716" d="M608 149h54q0 -83 -38.5 -116t-119.5 -33h-450v51h59q39 0 53 16.5t14 53.5v188h-126v48h126v135q0 102 58.5 160.5t161.5 58.5q102 0 160.5 -57.5t58.5 -154.5h-54q0 74 -41 117.5t-121 43.5q-82 0 -126 -43.5t-44 -125.5v-134h231v-48h-231v-186q0 -52 -28 -72h294 q60 0 84.5 20.5t24.5 77.5z"/>
<glyph unicode="¤" glyph-name="currency" horiz-adv-x="714" d="M586 353q0 -82 -46 -144l80 -81l-38 -38l-79 81q-64 -51 -146 -51t-146 51l-79 -81l-38 38l81 81q-47 61 -47 144q0 81 47 144l-81 81l38 38l80 -81q62 50 145 50q82 0 144 -49l81 80l38 -38l-81 -81q47 -61 47 -144zM357 168q76 0 128 52.5t52 132.5q0 79 -52 131.5 t-128 52.5q-75 0 -127.5 -52t-52.5 -132t52 -132.5t128 -52.5z"/>
<glyph unicode="¥" glyph-name="yen" horiz-adv-x="690" d="M636 700l-249 -413h190v-36h-205v-86h205v-35h-205v-130h-53v130h-205v35h205v86h-205v36h188l-248 413h61l230 -380l230 380h61z"/>
<glyph unicode="¦" glyph-name="brokenbar" horiz-adv-x="241" d="M147 700v-354h-53v354h53zM147 260v-354h-53v354h53z"/>
<glyph unicode="§" glyph-name="section" horiz-adv-x="651" d="M467 162q40 -18 58 -43t18 -63q0 -74 -56.5 -115.5t-150.5 -41.5q-89 0 -152.5 39t-80.5 115h54q17 -58 67.5 -84t113.5 -26q69 0 110.5 29.5t41.5 79.5q0 40 -36 59t-142 46q-51 13 -76.5 20t-58 20t-47.5 27t-25.5 35t-10.5 49q0 82 89 140q-40 18 -58 43t-18 63 q0 73 59.5 115t151.5 42q89 0 150.5 -37t78.5 -110h-53q-33 103 -177 103q-67 0 -111.5 -30t-44.5 -79q0 -41 36 -59.5t141 -45.5q51 -13 76.5 -20t58 -20t47.5 -27t25.5 -35t10.5 -49q0 -84 -89 -140zM149 316q0 -43 32 -61.5t121 -41.5q18 -5 27 -7q52 -13 94 -27 q79 53 79 115q0 30 -21 49.5t-42.5 27t-88.5 25.5q-18 5 -28 8q-52 13 -94 27q-79 -53 -79 -115z"/>
<glyph unicode="¨" glyph-name="dieresis" horiz-adv-x="496" d="M134 784q17 0 29 -11.5t12 -27.5q0 -17 -12 -28.5t-29 -11.5t-28.5 11.5t-11.5 28.5q0 16 11.5 27.5t28.5 11.5zM361 784q17 0 29 -11.5t12 -27.5q0 -17 -12 -28.5t-29 -11.5t-29 11.5t-12 28.5q0 16 12 27.5t29 11.5z"/>
<glyph unicode="©" glyph-name="copyright" horiz-adv-x="728" d="M364 781q112 0 191 -79t79 -191t-79 -191t-191 -79t-191 79t-79 191t79 191t191 79zM364 272q99 0 168.5 69.5t69.5 169.5q0 99 -69.5 168.5t-168.5 69.5t-168.5 -69.5t-69.5 -168.5q0 -100 69.5 -169.5t168.5 -69.5zM364 620q-44 0 -74.5 -31t-30.5 -78t30.5 -78.5 t74.5 -31.5q32 0 57.5 17t37.5 46h38q-13 -43 -49.5 -69.5t-83.5 -26.5q-59 0 -99.5 40.5t-40.5 102.5q0 61 40.5 101.5t99.5 40.5q47 0 83.5 -26.5t49.5 -69.5h-38q-12 29 -37.5 46t-57.5 17z"/>
<glyph unicode="«" glyph-name="guillemotleft" horiz-adv-x="583" d="M277 96l-183 183l183 183l36 -37l-146 -146l146 -146zM453 96l-183 183l183 183l37 -37l-147 -146l147 -146z"/>
<glyph unicode="¬" glyph-name="logicalnot" horiz-adv-x="689" d="M595 329v-190h-53v139h-448v51h501z"/>
<glyph unicode="®" glyph-name="registered" horiz-adv-x="728" d="M364 781q112 0 191 -79t79 -191t-79 -191t-191 -79t-191 79t-79 191t79 191t191 79zM364 271q98 0 168 70t70 170q0 99 -70 169t-168 70t-168 -70t-70 -169q0 -100 70 -170t168 -70zM477 564q0 -37 -22 -61t-65 -26l95 -115h-44l-94 115h-46v-115h-35v288h120 q46 0 68.5 -24t22.5 -62zM301 619v-112h73q38 0 53 14.5t15 42.5t-15 41.5t-53 13.5h-73z"/>
<glyph unicode="¯" glyph-name="macron" horiz-adv-x="439" d="M345 770v-42h-251v42h251z"/>
<glyph unicode="°" glyph-name="degree" horiz-adv-x="531" d="M265 781q72 0 122 -50t50 -121t-50.5 -121.5t-121.5 -50.5t-121.5 50.5t-49.5 121.5q-1 71 49.5 121t121.5 50zM265 738q-53 0 -90.5 -37.5t-37.5 -91.5t37.5 -91.5t90.5 -37.5t91 37.5t38 91.5t-37.5 91.5t-91.5 37.5z"/>
<glyph unicode="±" glyph-name="plusminus" horiz-adv-x="689" d="M371 545v-155h224v-43h-224v-161h-53v161h-224v43h224v155h53zM595 141v-43h-501v43h501z"/>
<glyph unicode="²" glyph-name="uni00B2" horiz-adv-x="411" d="M110 412h263v-41h-335v35l145 108q75 55 100 83t25 62q0 36 -26.5 59.5t-71.5 23.5q-100 0 -115 -103h-49q8 67 52 104.5t113 37.5q67 0 106 -36t39 -87q0 -46 -31 -81.5t-106 -87.5z"/>
<glyph unicode="³" glyph-name="uni00B3" horiz-adv-x="407" d="M301 586q30 -12 49 -39t19 -65q0 -52 -41 -87t-114 -35q-68 0 -116.5 34t-59.5 97h48q10 -45 44 -68.5t82 -23.5q51 0 80 23t29 62q0 36 -21 56t-54 20h-85v36h58q35 0 61 17t26 50q0 36 -27 57.5t-71 21.5q-43 0 -74 -23t-38 -69h-48q8 63 52 97t109 34q67 0 106 -33.5 t39 -84.5t-53 -77z"/>
<glyph unicode="´" glyph-name="acute" horiz-adv-x="388" d="M260 841l34 -35l-172 -160l-28 28z"/>
<glyph unicode="¶" glyph-name="paragraph" horiz-adv-x="606" d="M196 700h316v-801h-54v750h-160v-750h-53v519h-49q-44 0 -73 29t-29 73v78q0 44 29 73t73 29z"/>
<glyph unicode="·" glyph-name="periodcentered" horiz-adv-x="273" d="M136 354q18 0 30.5 -12t12.5 -30q0 -17 -12.5 -29t-30.5 -12t-30 12t-12 29q0 18 12 30t30 12z"/>
<glyph unicode="¸" glyph-name="cedilla" horiz-adv-x="372" d="M175 -84q43 -4 75.5 -25t32.5 -63q0 -43 -35.5 -66t-93.5 -23q-37 0 -60 5v34q22 -5 55 -5q41 0 65 14t24 42q0 59 -112 62l47 109h40z"/>
<glyph unicode="¹" glyph-name="uni00B9" horiz-adv-x="255" d="M193 770h24v-399h-48v346l-131 -49v46z"/>
<glyph unicode="»" glyph-name="guillemotright" horiz-adv-x="583" d="M130 96l-36 37l146 146l-146 146l36 37l183 -183zM307 96l-37 37l147 146l-147 146l37 37l183 -183z"/>
<glyph unicode="¼" glyph-name="onequarter" horiz-adv-x="806" d="M169 301v346l-131 -49v46l155 56h24v-399h-48zM553 700h54l-400 -700h-54zM767 131v-41h-74v-90h-48v90h-224v41l209 268h63v-268h74zM466 131h179v231z"/>
<glyph unicode="½" glyph-name="onehalf" horiz-adv-x="871" d="M169 301v346l-131 -49v46l155 56h24v-399h-48zM553 700h54l-400 -700h-54zM569 41h263v-41h-335v35l145 108q75 55 100 83t25 62q0 36 -26.5 59.5t-71.5 23.5q-100 0 -115 -103h-49q8 67 52 104.5t113 37.5q67 0 106 -36t39 -86q0 -46 -31 -81.5t-106 -88.5z"/>
<glyph unicode="¾" glyph-name="threequarters" horiz-adv-x="912" d="M369 412q0 -52 -41 -87t-114 -35q-68 0 -116.5 34t-59.5 97h48q10 -45 44 -68.5t82 -23.5q51 0 80 23t29 62q0 36 -21 56t-54 20h-85v36h58q35 0 61 17t26 50q0 36 -27 57.5t-71 21.5q-43 0 -74 -23t-38 -69h-48q8 63 52 97t109 34q67 0 106 -33.5t39 -84.5t-53 -77 q30 -12 49 -39t19 -65zM659 700h54l-400 -700h-54zM873 131v-41h-74v-90h-48v90h-224v41l209 268h63v-268h74zM572 131h179v231z"/>
<glyph unicode="¿" glyph-name="questiondown" horiz-adv-x="571" d="M298 461q18 0 30.5 -12.5t12.5 -30.5t-12.5 -29.5t-30.5 -11.5q-19 0 -31 11.5t-12 29.5t12 30.5t31 12.5zM326 257v-51q0 -26 -7.5 -44.5t-28.5 -35.5t-34.5 -25t-48.5 -26q-56 -29 -81.5 -57t-25.5 -78q0 -69 49 -110t134 -41q167 0 187 164h54q-12 -107 -77 -160.5 t-165 -53.5q-106 0 -170.5 54.5t-64.5 145.5q0 66 33.5 103.5t97.5 70.5q61 32 77 51q19 21 19 50v43h52z"/>
<glyph unicode="À" glyph-name="Agrave" horiz-adv-x="723" d="M461 798l-29 -28l-171 160l34 35zM629 0l-95 233h-345l-95 -233h-57l289 700h71l289 -700h-57zM210 283h303l-152 369z"/>
<glyph unicode="Á" glyph-name="Aacute" horiz-adv-x="723" d="M461 930l-172 -160l-28 28l166 167zM629 0l-95 233h-345l-95 -233h-57l289 700h71l289 -700h-57zM210 283h303l-152 369z"/>
<glyph unicode="Â" glyph-name="Acircumflex" horiz-adv-x="723" d="M361 906l-134 -136l-32 32l166 166l166 -166l-32 -32zM629 0l-95 233h-345l-95 -233h-57l289 700h71l289 -700h-57zM210 283h303l-152 369z"/>
<glyph unicode="Ã" glyph-name="Atilde" horiz-adv-x="723" d="M279 890q-28 0 -38 -23t-10 -68h-39q0 135 86 135q23 0 41 -11t50 -42l12 -12t12.5 -12t10.5 -8.5t12.5 -8.5t12 -4t14.5 -2q48 0 48 91h39q0 -135 -87 -135q-23 0 -41.5 11t-48.5 41l-12.5 12.5l-12 12t-11 9t-12.5 8t-12 4.5t-14 2zM629 0l-95 233h-345l-95 -233h-57 l289 700h71l289 -700h-57zM210 283h303l-152 369z"/>
<glyph unicode="Ä" glyph-name="Adieresis" horiz-adv-x="723" d="M247 830q-17 0 -28.5 11.5t-11.5 27.5q0 17 11.5 28.5t28.5 11.5t29 -11.5t12 -28.5q0 -16 -12 -27.5t-29 -11.5zM474 830q-17 0 -29 11.5t-12 27.5q0 17 12 28.5t29 11.5t29 -11.5t12 -28.5q0 -16 -12 -27.5t-29 -11.5zM629 0l-95 233h-345l-95 -233h-57l289 700h71 l289 -700h-57zM210 283h303l-152 369z"/>
<glyph unicode="Å" glyph-name="Aring" horiz-adv-x="723" d="M361 770q-48 0 -82 34t-34 83t33.5 82.5t82.5 33.5q50 0 84 -33.5t33 -82.5q1 -49 -33.5 -83t-83.5 -34zM361 966q-33 0 -56 -23t-22 -57q0 -33 23 -56.5t55 -23.5q33 0 56 23.5t23 56.5q0 34 -22.5 57t-56.5 23zM629 0l-95 233h-345l-95 -233h-57l289 700h71l289 -700 h-57zM210 283h303l-152 369z"/>
<glyph unicode="Æ" glyph-name="AE" horiz-adv-x="841" d="M794 649h-378v-262h355v-51h-355v-285h378v-51h-431v233h-174l-95 -233h-57l289 700h71h397v-51zM210 283h153v372z"/>
<glyph unicode="Ç" glyph-name="Ccedilla" horiz-adv-x="800" d="M423 40q92 0 164.5 47.5t108.5 127.5h57q-38 -104 -126 -165t-202 -61h-9l-33 -73q42 -4 75 -25.5t33 -62.5q0 -43 -35.5 -66t-93.5 -23q-37 0 -60 5v34q23 -5 55 -5q41 0 65 14t24 42q0 59 -112 62l44 101q-137 17 -225 116.5t-88 241.5q0 156 102.5 258.5t257.5 102.5 q114 0 202 -61t126 -165h-57q-36 80 -108.5 127.5t-164.5 47.5q-129 0 -217 -89t-88 -221t88 -221t217 -89z"/>
<glyph unicode="È" glyph-name="Egrave" horiz-adv-x="573" d="M386 798l-29 -28l-171 160l34 35zM526 649h-379v-262h356v-51h-356v-285h379v-51h-432v700h432v-51z"/>
<glyph unicode="É" glyph-name="Eacute" horiz-adv-x="573" d="M386 930l-172 -160l-28 28l166 167zM526 649h-379v-262h356v-51h-356v-285h379v-51h-432v700h432v-51z"/>
<glyph unicode="Ê" glyph-name="Ecircumflex" horiz-adv-x="573" d="M286 906l-134 -136l-32 32l166 166l166 -166l-32 -32zM526 649h-379v-262h356v-51h-356v-285h379v-51h-432v700h432v-51z"/>
<glyph unicode="Ë" glyph-name="Edieresis" horiz-adv-x="573" d="M172 830q-17 0 -28.5 11.5t-11.5 27.5q0 17 11.5 28.5t28.5 11.5t29 -11.5t12 -28.5q0 -16 -12 -27.5t-29 -11.5zM399 830q-17 0 -29 11.5t-12 27.5q0 17 12 28.5t29 11.5t29 -11.5t12 -28.5q0 -16 -12 -27.5t-29 -11.5zM526 649h-379v-262h356v-51h-356v-285h379v-51 h-432v700h432v-51z"/>
<glyph unicode="Ì" glyph-name="Igrave" horiz-adv-x="242" d="M54 965l166 -167l-29 -28l-171 160zM95 0v700h53v-700h-53z"/>
<glyph unicode="Í" glyph-name="Iacute" horiz-adv-x="242" d="M186 965l34 -35l-172 -160l-28 28zM95 0v700h53v-700h-53z"/>
<glyph unicode="Î" glyph-name="Icircumflex" horiz-adv-x="242" d="M286 802l-32 -32l-134 136l-134 -136l-32 32l166 166zM95 0v700h53v-700h-53z"/>
<glyph unicode="Ï" glyph-name="Idieresis" horiz-adv-x="242" d="M6 909q17 0 29 -11.5t12 -28.5q0 -16 -12 -27.5t-29 -11.5t-28.5 11.5t-11.5 27.5q0 17 11.5 28.5t28.5 11.5zM233 909q17 0 29 -11.5t12 -28.5q0 -16 -12 -27.5t-29 -11.5t-29 11.5t-12 27.5q0 17 12 28.5t29 11.5zM95 0v700h53v-700h-53z"/>
<glyph unicode="Ð" glyph-name="Eth" horiz-adv-x="746" d="M323 700q154 0 256.5 -98.5t102.5 -251.5q0 -152 -103 -251t-256 -99h-229v324h-78v51h78v325h229zM325 51q129 0 216 84t88 215q0 130 -87.5 214.5t-216.5 84.5h-178v-274h157v-51h-157v-273h178z"/>
<glyph unicode="Ñ" glyph-name="Ntilde" horiz-adv-x="737" d="M286 890q-28 0 -38 -23t-10 -68h-39q0 135 86 135q23 0 41 -11t50 -42l12 -12t12.5 -12t10.5 -8.5t12.5 -8.5t12 -4t14.5 -2q48 0 48 91h39q0 -135 -87 -135q-23 0 -41.5 11t-48.5 41l-12.5 12.5l-12 12t-11 9t-12.5 8t-12 4.5t-14 2zM595 700h53v-700h-71l-439 636 l4 -343v-293h-53v700h70l440 -636l-4 343v293z"/>
<glyph unicode="Ò" glyph-name="Ograve" horiz-adv-x="847" d="M357 965l166 -167l-29 -28l-171 160zM424 711q153 0 256 -103.5t103 -257.5t-103 -257.5t-256 -103.5t-256.5 103.5t-103.5 257.5t104 257.5t256 103.5zM424 660q-129 0 -217.5 -89t-88.5 -221t88.5 -221t217.5 -89t217.5 89t87.5 221q1 132 -87.5 221t-217.5 89z"/>
<glyph unicode="Ó" glyph-name="Oacute" horiz-adv-x="847" d="M489 965l34 -35l-172 -160l-28 28zM424 711q153 0 256 -103.5t103 -257.5t-103 -257.5t-256 -103.5t-256.5 103.5t-103.5 257.5t104 257.5t256 103.5zM424 660q-129 0 -217.5 -89t-88.5 -221t88.5 -221t217.5 -89t217.5 89t87.5 221q1 132 -87.5 221t-217.5 89z"/>
<glyph unicode="Ô" glyph-name="Ocircumflex" horiz-adv-x="847" d="M589 802l-32 -32l-134 136l-134 -136l-32 32l166 166zM424 711q153 0 256 -103.5t103 -257.5t-103 -257.5t-256 -103.5t-256.5 103.5t-103.5 257.5t104 257.5t256 103.5zM424 660q-129 0 -217.5 -89t-88.5 -221t88.5 -221t217.5 -89t217.5 89t87.5 221q1 132 -87.5 221 t-217.5 89z"/>
<glyph unicode="Õ" glyph-name="Otilde" horiz-adv-x="847" d="M553 925h39q0 -135 -87 -135q-23 0 -41.5 11t-48.5 41l-12.5 12.5l-12 12t-11 9t-12.5 8t-12 4.5t-14 2q-28 0 -38 -23t-10 -68h-39q0 135 86 135q23 0 41 -11t50 -42l12 -12t12.5 -12t10.5 -8.5t12.5 -8.5t12 -4t14.5 -2q48 0 48 91zM424 711q153 0 256 -103.5 t103 -257.5t-103 -257.5t-256 -103.5t-256.5 103.5t-103.5 257.5t104 257.5t256 103.5zM424 660q-129 0 -217.5 -89t-88.5 -221t88.5 -221t217.5 -89t217.5 89t87.5 221q1 132 -87.5 221t-217.5 89z"/>
<glyph unicode="Ö" glyph-name="Odieresis" horiz-adv-x="847" d="M309 909q17 0 29 -11.5t12 -28.5q0 -16 -12 -27.5t-29 -11.5t-28.5 11.5t-11.5 27.5q0 17 11.5 28.5t28.5 11.5zM536 909q17 0 29 -11.5t12 -28.5q0 -16 -12 -27.5t-29 -11.5t-29 11.5t-12 27.5q0 17 12 28.5t29 11.5zM424 711q153 0 256 -103.5t103 -257.5t-103 -257.5 t-256 -103.5t-256.5 103.5t-103.5 257.5t104 257.5t256 103.5zM424 660q-129 0 -217.5 -89t-88.5 -221t88.5 -221t217.5 -89t217.5 89t87.5 221q1 132 -87.5 221t-217.5 89z"/>
<glyph unicode="×" glyph-name="multiply" d="M552 549l37 -36l-212 -210l212 -212l-37 -36l-211 212l-211 -212l-36 36l211 212l-211 210l36 36l211 -210z"/>
<glyph unicode="Ø" glyph-name="Oslash" horiz-adv-x="847" d="M607 663q81 -47 128.5 -129.5t47.5 -183.5q0 -154 -103 -257.5t-256 -103.5q-73 0 -140 27l-26 -51h-54l36 72q-81 47 -128.5 129.5t-47.5 183.5q0 154 104 257.5t256 103.5q72 0 140 -27l25 51h54zM118 350q0 -86 39 -156t106 -110l277 554q-55 22 -116 22 q-129 0 -217.5 -89t-88.5 -221zM424 40q129 0 217.5 89t87.5 221q1 85 -38.5 155t-106.5 111l-277 -554q57 -22 117 -22z"/>
<glyph unicode="Ù" glyph-name="Ugrave" horiz-adv-x="725" d="M296 965l166 -167l-29 -28l-171 160zM582 700h54v-428q0 -138 -75.5 -210.5t-195.5 -72.5t-195.5 72.5t-75.5 210.5v428h54v-425q0 -116 60 -175.5t157 -59.5t157 59.5t60 175.5v425z"/>
<glyph unicode="Ú" glyph-name="Uacute" horiz-adv-x="725" d="M428 965l34 -35l-172 -160l-28 28zM582 700h54v-428q0 -138 -75.5 -210.5t-195.5 -72.5t-195.5 72.5t-75.5 210.5v428h54v-425q0 -116 60 -175.5t157 -59.5t157 59.5t60 175.5v425z"/>
<glyph unicode="Û" glyph-name="Ucircumflex" horiz-adv-x="725" d="M529 802l-32 -32l-134 136l-134 -136l-32 32l166 166zM582 700h54v-428q0 -138 -75.5 -210.5t-195.5 -72.5t-195.5 72.5t-75.5 210.5v428h54v-425q0 -116 60 -175.5t157 -59.5t157 59.5t60 175.5v425z"/>
<glyph unicode="Ü" glyph-name="Udieresis" horiz-adv-x="725" d="M249 909q17 0 29 -11.5t12 -28.5q0 -16 -12 -27.5t-29 -11.5t-28.5 11.5t-11.5 27.5q0 17 11.5 28.5t28.5 11.5zM476 909q17 0 29 -11.5t12 -28.5q0 -16 -12 -27.5t-29 -11.5t-29 11.5t-12 27.5q0 17 12 28.5t29 11.5zM582 700h54v-428q0 -138 -75.5 -210.5t-195.5 -72.5 t-195.5 72.5t-75.5 210.5v428h54v-425q0 -116 60 -175.5t157 -59.5t157 59.5t60 175.5v425z"/>
<glyph unicode="Ý" glyph-name="Yacute" horiz-adv-x="656" d="M428 930l-172 -160l-28 28l166 167zM619 700l-264 -438v-262h-54v260l-264 440h61l230 -380l230 380h61z"/>
<glyph unicode="Þ" glyph-name="Thorn" horiz-adv-x="671" d="M368 597q114 0 176.5 -61.5t62.5 -156.5t-63 -159t-176 -64h-220v-156h-54v700h54v-103h220zM367 207q91 0 138.5 49.5t47.5 121.5q0 73 -47 121t-139 48h-219v-340h219z"/>
<glyph unicode="ß" glyph-name="germandbls" horiz-adv-x="614" d="M421 405q73 -17 111.5 -71.5t38.5 -130.5q0 -101 -66 -157.5t-170 -56.5q-83 0 -138 21l11 49q52 -19 121 -19q85 0 137 43t52 122q0 73 -46 120t-136 47h-95v51h71q85 0 129.5 41t44.5 108q0 69 -46.5 113.5t-128.5 44.5q-83 0 -129.5 -49t-46.5 -134v-547h-53v547 q0 107 61.5 170.5t167.5 63.5q104 0 166 -58.5t62 -145.5q0 -60 -30.5 -105.5t-87.5 -66.5z"/>
<glyph unicode="à" glyph-name="agrave" d="M443 674l-29 -29l-171 161l34 34zM547 550h53v-550h-53v131q-33 -65 -93.5 -103.5t-136.5 -38.5q-115 0 -188 81t-73 205t73 205t187 81q77 0 137.5 -38.5t93.5 -104.5v132zM324 40q96 0 160 66.5t64 168.5t-64 168.5t-160 66.5q-95 0 -155 -66.5t-60 -168.5t60 -168.5 t155 -66.5z"/>
<glyph unicode="á" glyph-name="aacute" d="M443 806l-172 -160l-28 28l166 167zM547 550h53v-550h-53v131q-33 -65 -93.5 -103.5t-136.5 -38.5q-115 0 -188 81t-73 205t73 205t187 81q77 0 137.5 -38.5t93.5 -104.5v132zM324 40q96 0 160 66.5t64 168.5t-64 168.5t-160 66.5q-95 0 -155 -66.5t-60 -168.5t60 -168.5 t155 -66.5z"/>
<glyph unicode="â" glyph-name="acircumflex" d="M343 782l-134 -136l-32 31l166 167l166 -167l-32 -31zM547 550h53v-550h-53v131q-33 -65 -93.5 -103.5t-136.5 -38.5q-115 0 -188 81t-73 205t73 205t187 81q77 0 137.5 -38.5t93.5 -104.5v132zM324 40q96 0 160 66.5t64 168.5t-64 168.5t-160 66.5q-95 0 -155 -66.5 t-60 -168.5t60 -168.5t155 -66.5z"/>
<glyph unicode="ã" glyph-name="atilde" d="M261 768q-28 0 -38 -23t-10 -68h-39q0 135 86 135q23 0 41 -11t50 -42l12.5 -12.5l12 -12t11 -9t12.5 -8t12 -4.5t14 -2q27 0 37.5 23.5t10.5 68.5h39q0 -136 -87 -136q-23 0 -41 11.5t-49 41.5l-12.5 12.5l-12 12t-11 9t-12.5 8t-12 4.5t-14 2zM547 550h53v-550h-53v131 q-33 -65 -93.5 -103.5t-136.5 -38.5q-115 0 -188 81t-73 205t73 205t187 81q77 0 137.5 -38.5t93.5 -104.5v132zM324 40q96 0 160 66.5t64 168.5t-64 168.5t-160 66.5q-95 0 -155 -66.5t-60 -168.5t60 -168.5t155 -66.5z"/>
<glyph unicode="ä" glyph-name="adieresis" d="M229 705q-17 0 -28.5 11.5t-11.5 28.5q0 16 11.5 27.5t28.5 11.5t29 -11.5t12 -27.5q0 -17 -12 -28.5t-29 -11.5zM456 705q-17 0 -29 11.5t-12 28.5q0 16 12 27.5t29 11.5t29 -11.5t12 -27.5q0 -17 -12 -28.5t-29 -11.5zM547 550h53v-550h-53v131q-33 -65 -93.5 -103.5 t-136.5 -38.5q-115 0 -188 81t-73 205t73 205t187 81q77 0 137.5 -38.5t93.5 -104.5v132zM324 40q96 0 160 66.5t64 168.5t-64 168.5t-160 66.5q-95 0 -155 -66.5t-60 -168.5t60 -168.5t155 -66.5z"/>
<glyph unicode="å" glyph-name="aring" d="M343 646q-48 0 -82 34t-34 82q0 49 33.5 83t82.5 34q50 0 84 -34t33 -83q1 -48 -33.5 -82t-83.5 -34zM343 842q-33 0 -56 -23t-22 -57q0 -34 23 -57t55 -23q33 0 56 23t23 57t-22.5 57t-56.5 23zM547 550h53v-550h-53v131q-33 -65 -93.5 -103.5t-136.5 -38.5 q-115 0 -188 81t-73 205t73 205t187 81q77 0 137.5 -38.5t93.5 -104.5v132zM324 40q96 0 160 66.5t64 168.5t-64 168.5t-160 66.5q-95 0 -155 -66.5t-60 -168.5t60 -168.5t155 -66.5z"/>
<glyph unicode="æ" glyph-name="ae" horiz-adv-x="1147" d="M827 561q126 0 200 -84t71 -219h-496q5 -101 68 -159.5t161 -58.5q67 0 118.5 28t78.5 81h56q-33 -78 -101.5 -119t-153.5 -41q-76 0 -137 31.5t-98 88.5v-109h-46v131q-34 -66 -94 -104t-137 -38q-115 0 -188 81t-73 205t73.5 205t187.5 81q76 0 137 -39t94 -105v133h47 l-1 -112q37 58 97.5 90.5t135.5 32.5zM827 511q-91 0 -152 -57t-71 -146h438q-9 90 -67.5 146.5t-147.5 56.5zM324 40q97 0 161 66.5t64 168.5t-64 168.5t-161 66.5q-95 0 -154.5 -66t-59.5 -169t59.5 -169t154.5 -66z"/>
<glyph unicode="ç" glyph-name="ccedilla" horiz-adv-x="648" d="M338 39q73 0 129.5 39.5t78.5 104.5h56q-25 -88 -96 -140t-163 -54l-33 -73q42 -4 75 -25.5t33 -62.5q0 -43 -35.5 -66t-93.5 -23q-37 0 -60 5v34q23 -5 55 -5q41 0 65 14t24 42q0 59 -112 62l43 100q-108 12 -178 91t-70 193q0 123 81.5 204.5t201.5 81.5 q94 0 166 -52.5t97 -141.5h-56q-22 65 -78 104.5t-129 39.5q-98 0 -164 -67t-66 -169q0 -101 66 -168.5t163 -67.5z"/>
<glyph unicode="è" glyph-name="egrave" horiz-adv-x="654" d="M427 674l-29 -29l-171 161l34 34zM334 561q126 0 200 -84t72 -219h-496q4 -101 67.5 -159.5t160.5 -58.5q67 0 119 28t79 81h55q-33 -78 -101 -119t-153 -41q-123 0 -202 79t-79 205t78.5 207t199.5 81zM334 511q-90 0 -151 -56.5t-72 -146.5h439q-10 90 -68.5 146.5 t-147.5 56.5z"/>
<glyph unicode="é" glyph-name="eacute" horiz-adv-x="654" d="M427 806l-172 -160l-28 28l166 167zM334 561q126 0 200 -84t72 -219h-496q4 -101 67.5 -159.5t160.5 -58.5q67 0 119 28t79 81h55q-33 -78 -101 -119t-153 -41q-123 0 -202 79t-79 205t78.5 207t199.5 81zM334 511q-90 0 -151 -56.5t-72 -146.5h439q-10 90 -68.5 146.5 t-147.5 56.5z"/>
<glyph unicode="ê" glyph-name="ecircumflex" horiz-adv-x="654" d="M328 782l-134 -136l-32 31l166 167l166 -167l-32 -31zM334 561q126 0 200 -84t72 -219h-496q4 -101 67.5 -159.5t160.5 -58.5q67 0 119 28t79 81h55q-33 -78 -101 -119t-153 -41q-123 0 -202 79t-79 205t78.5 207t199.5 81zM334 511q-90 0 -151 -56.5t-72 -146.5h439 q-10 90 -68.5 146.5t-147.5 56.5z"/>
<glyph unicode="ë" glyph-name="edieresis" horiz-adv-x="654" d="M214 705q-17 0 -28.5 11.5t-11.5 28.5q0 16 11.5 27.5t28.5 11.5t29 -11.5t12 -27.5q0 -17 -12 -28.5t-29 -11.5zM441 705q-17 0 -29 11.5t-12 28.5q0 16 12 27.5t29 11.5t29 -11.5t12 -27.5q0 -17 -12 -28.5t-29 -11.5zM334 561q126 0 200 -84t72 -219h-496 q4 -101 67.5 -159.5t160.5 -58.5q67 0 119 28t79 81h55q-33 -78 -101 -119t-153 -41q-123 0 -202 79t-79 205t78.5 207t199.5 81zM334 511q-90 0 -151 -56.5t-72 -146.5h439q-10 90 -68.5 146.5t-147.5 56.5z"/>
<glyph unicode="ì" glyph-name="igrave" horiz-adv-x="217" d="M42 840l166 -166l-29 -29l-171 161zM82 0v550h53v-550h-53z"/>
<glyph unicode="í" glyph-name="iacute" horiz-adv-x="217" d="M174 841l34 -35l-172 -160l-28 28zM82 0v550h53v-550h-53z"/>
<glyph unicode="î" glyph-name="icircumflex" horiz-adv-x="217" d="M274 677l-32 -31l-134 136l-134 -136l-32 31l166 167zM82 0v550h53v-550h-53z"/>
<glyph unicode="ï" glyph-name="idieresis" horiz-adv-x="217" d="M-6 784q17 0 29 -11.5t12 -27.5q0 -17 -12 -28.5t-29 -11.5t-28.5 11.5t-11.5 28.5q0 16 11.5 27.5t28.5 11.5zM221 784q17 0 29 -11.5t12 -27.5q0 -17 -12 -28.5t-29 -11.5t-29 11.5t-12 28.5q0 16 12 27.5t29 11.5zM82 0v550h53v-550h-53z"/>
<glyph unicode="ð" glyph-name="eth" horiz-adv-x="669" d="M613 725l-86 -75q86 -114 86 -357q-1 -141 -79 -222.5t-198 -81.5t-200 80t-80 206q0 120 73.5 195t185.5 75q79 0 144.5 -39t96.5 -110q-8 101 -36 167t-79 102.5t-114.5 50.5t-156.5 14v51q223 0 323 -92l86 74zM337 37q97 0 160 64.5t63 171.5q0 100 -70 162.5 t-165 62.5q-94 0 -155 -62.5t-61 -162.5q0 -106 65.5 -171t162.5 -65z"/>
<glyph unicode="ñ" glyph-name="ntilde" horiz-adv-x="621" d="M228 768q-28 0 -38 -23t-10 -68h-39q0 135 86 135q23 0 41 -11t50 -42l12.5 -12.5l12 -12t11 -9t12.5 -8t12 -4.5t14 -2q27 0 37.5 23.5t10.5 68.5h39q0 -136 -87 -136q-23 0 -41 11.5t-49 41.5l-12.5 12.5l-12 12t-11 9t-12.5 8t-12 4.5t-14 2zM346 561q93 0 145.5 -55 t52.5 -156v-350h-53v343q0 82 -41 124.5t-115 42.5q-94 0 -147 -63.5t-53 -168.5v-278h-53v550h53v-129q59 140 211 140z"/>
<glyph unicode="ò" glyph-name="ograve" horiz-adv-x="675" d="M271 840l166 -166l-29 -29l-171 161zM338 561q118 0 200 -81.5t82 -204.5q0 -122 -81.5 -204t-200.5 -82t-200.5 82t-81.5 204t82 204t200 82zM338 510q-96 0 -162 -66.5t-66 -168.5q0 -101 66 -168t162 -67t162 67t66 168q0 102 -66 168.5t-162 66.5z"/>
<glyph unicode="ó" glyph-name="oacute" horiz-adv-x="675" d="M403 841l34 -35l-172 -160l-28 28zM338 561q118 0 200 -81.5t82 -204.5q0 -122 -81.5 -204t-200.5 -82t-200.5 82t-81.5 204t82 204t200 82zM338 510q-96 0 -162 -66.5t-66 -168.5q0 -101 66 -168t162 -67t162 67t66 168q0 102 -66 168.5t-162 66.5z"/>
<glyph unicode="ô" glyph-name="ocircumflex" horiz-adv-x="675" d="M503 677l-32 -31l-134 136l-134 -136l-32 31l166 167zM338 561q118 0 200 -81.5t82 -204.5q0 -122 -81.5 -204t-200.5 -82t-200.5 82t-81.5 204t82 204t200 82zM338 510q-96 0 -162 -66.5t-66 -168.5q0 -101 66 -168t162 -67t162 67t66 168q0 102 -66 168.5t-162 66.5z "/>
<glyph unicode="õ" glyph-name="otilde" horiz-adv-x="675" d="M467 803h39q0 -136 -87 -136q-23 0 -41 11.5t-49 41.5l-12.5 12.5l-12 12t-11 9t-12.5 8t-12 4.5t-14 2q-28 0 -38 -23t-10 -68h-39q0 135 86 135q23 0 41 -11t50 -42l12.5 -12.5l12 -12t11 -9t12.5 -8t12 -4.5t14 -2q27 0 37.5 23.5t10.5 68.5zM338 561q118 0 200 -81.5 t82 -204.5q0 -122 -81.5 -204t-200.5 -82t-200.5 82t-81.5 204t82 204t200 82zM338 510q-96 0 -162 -66.5t-66 -168.5q0 -101 66 -168t162 -67t162 67t66 168q0 102 -66 168.5t-162 66.5z"/>
<glyph unicode="ö" glyph-name="odieresis" horiz-adv-x="675" d="M223 784q17 0 29 -11.5t12 -27.5q0 -17 -12 -28.5t-29 -11.5t-28.5 11.5t-11.5 28.5q0 16 11.5 27.5t28.5 11.5zM450 784q17 0 29 -11.5t12 -27.5q0 -17 -12 -28.5t-29 -11.5t-29 11.5t-12 28.5q0 16 12 27.5t29 11.5zM338 561q118 0 200 -81.5t82 -204.5 q0 -122 -81.5 -204t-200.5 -82t-200.5 82t-81.5 204t82 204t200 82zM338 510q-96 0 -162 -66.5t-66 -168.5q0 -101 66 -168t162 -67t162 67t66 168q0 102 -66 168.5t-162 66.5z"/>
<glyph unicode="÷" glyph-name="divide" horiz-adv-x="689" d="M345 507q18 0 30 -12t12 -29q0 -18 -12 -29.5t-30 -11.5q-19 0 -31.5 11.5t-12.5 29.5q0 17 12.5 29t31.5 12zM595 329v-51h-501v51h501zM345 183q18 0 30 -12t12 -29q0 -18 -12 -29.5t-30 -11.5q-19 0 -31.5 11.5t-12.5 29.5q0 17 12.5 29t31.5 12z"/>
<glyph unicode="ø" glyph-name="oslash" horiz-adv-x="675" d="M518 496q102 -84 102 -221q0 -122 -81.5 -204t-200.5 -82q-84 0 -153 44l-23 -33h-44l38 54q-100 84 -100 221q0 122 82 204t200 82q81 0 151 -43l23 32h45zM110 275q0 -112 77 -179l272 380q-54 34 -121 34q-96 0 -162 -66.5t-66 -168.5zM338 40q96 0 162 67t66 168 q0 111 -78 179l-272 -379q53 -35 122 -35z"/>
<glyph unicode="ù" glyph-name="ugrave" horiz-adv-x="612" d="M405 674l-29 -29l-171 161l34 34zM481 550h53v-550h-53v129q-60 -140 -209 -140q-92 0 -143.5 55.5t-51.5 155.5v350h53v-343q0 -82 39.5 -124.5t113.5 -42.5q92 0 145 63.5t53 168.5v278z"/>
<glyph unicode="ú" glyph-name="uacute" horiz-adv-x="612" d="M405 806l-172 -160l-28 28l166 167zM481 550h53v-550h-53v129q-60 -140 -209 -140q-92 0 -143.5 55.5t-51.5 155.5v350h53v-343q0 -82 39.5 -124.5t113.5 -42.5q92 0 145 63.5t53 168.5v278z"/>
<glyph unicode="û" glyph-name="ucircumflex" horiz-adv-x="612" d="M305 782l-134 -136l-32 31l166 167l166 -167l-32 -31zM481 550h53v-550h-53v129q-60 -140 -209 -140q-92 0 -143.5 55.5t-51.5 155.5v350h53v-343q0 -82 39.5 -124.5t113.5 -42.5q92 0 145 63.5t53 168.5v278z"/>
<glyph unicode="ü" glyph-name="udieresis" horiz-adv-x="612" d="M191 705q-17 0 -28.5 11.5t-11.5 28.5q0 16 11.5 27.5t28.5 11.5t29 -11.5t12 -27.5q0 -17 -12 -28.5t-29 -11.5zM418 705q-17 0 -29 11.5t-12 28.5q0 16 12 27.5t29 11.5t29 -11.5t12 -27.5q0 -17 -12 -28.5t-29 -11.5zM481 550h53v-550h-53v129q-60 -140 -209 -140 q-92 0 -143.5 55.5t-51.5 155.5v350h53v-343q0 -82 39.5 -124.5t113.5 -42.5q92 0 145 63.5t53 168.5v278z"/>
<glyph unicode="ý" glyph-name="yacute" horiz-adv-x="572" d="M386 806l-172 -160l-28 28l166 167zM487 550h57l-377 -800h-58l148 313l-229 487h57l200 -428z"/>
<glyph unicode="þ" glyph-name="thorn" horiz-adv-x="687" d="M371 561q114 0 187 -81t73 -205t-73 -205t-187 -81q-77 0 -137.5 38.5t-93.5 104.5v-382h-53v1020h53v-352q33 66 93.5 104.5t137.5 38.5zM363 40q95 0 155 66.5t60 168.5q0 103 -60 169t-155 66q-96 0 -160 -66.5t-64 -168.5t64 -168.5t160 -66.5z"/>
</font>
</defs>
</svg>
