<?xml version="1.0" encoding="UTF-8" standalone="no"?>
<!DOCTYPE svg  PUBLIC '-//W3C//DTD SVG 1.1//EN'  'http://www.w3.org/Graphics/SVG/1.1/DTD/svg11.dtd'>
<svg xmlns="http://www.w3.org/2000/svg" version="1.1">
<defs>
<font id="Stolzl-Medium" horiz-adv-x="652">
<font-face descent="-200" font-weight="500" unicode-range="U+0020-00FE" underline-thickness="50" bbox="-65 -263 1088 1031" underline-position="-150" panose-1="0 0 6 0 0 0 0 0 0 0" x-height="550" cap-height="700" font-family="Stolzl Medium" ascent="800" units-per-em="1000"/>
<missing-glyph/>
<glyph unicode=" " horiz-adv-x="300" glyph-name="space"/>
<glyph unicode="!" horiz-adv-x="329" glyph-name="exclam" d="M236 700v-232l-9 -234h-125l-9 234v232h143zM165 158q38 0 63.5 -24t25.5 -61t-25.5 -61t-63.5 -24t-63.5 24t-25.5 61t25.5 61t63.5 24z"/>
<glyph unicode='&quot;' horiz-adv-x="502" glyph-name="quotedbl" d="M92 377l-16 210v113h143v-113l-17 -210h-110zM301 377l-17 210v113h143v-113l-17 -210h-109z"/>
<glyph unicode="#" horiz-adv-x="950" glyph-name="numbersign" d="M844 466h-145l-41 -153h145l-30 -115h-145l-52 -198h-132l53 198h-145l-52 -198h-131l52 198h-145l30 115h145l40 153h-145l31 115h145l50 189h131l-50 -189h144l50 189h132l-50 -189h145zM527 313l40 153h-144l-40 -153h144z"/>
<glyph unicode="$" horiz-adv-x="646" glyph-name="dollar" d="M609 207q0 -96 -61 -149t-150 -66v-116h-143v120q-100 20 -152.5 82t-64.5 147h144q15 -54 51.5 -79t108.5 -25q60 0 91.5 21t31.5 59q0 24 -17.5 38.5t-42.5 21.5t-89 21l-7.5 1.5t-7 1.5t-8.5 2q-54 11 -91 24t-73 36t-54.5 59t-18.5 86q0 88 56 143t143 72v117h142 v-118q94 -17 144 -74t61 -137h-145q-26 84 -136 84q-61 0 -91 -22.5t-30 -58.5q0 -29 25.5 -42t101.5 -29q77 -16 124 -32t86 -40.5t55.5 -60.5t16.5 -87z"/>
<glyph unicode="%" horiz-adv-x="1105" glyph-name="percent" d="M271 291q-89 0 -142 55.5t-53 155.5q0 99 53 154.5t142 55.5t142 -55.5t53 -154.5q0 -100 -53 -155.5t-142 -55.5zM820 700l-400 -700h-136l400 700h136zM271 402q71 0 71 100q0 99 -71 99t-71 -99q0 -100 71 -100zM834 409q89 0 142 -55.5t53 -155.5q0 -99 -53 -154.5 t-142 -55.5t-142.5 55.5t-53.5 154.5t53.5 155t142.5 56zM834 298q-71 0 -71 -100q0 -99 71 -99t71 99q0 100 -71 100z"/>
<glyph unicode="&amp;" horiz-adv-x="746" glyph-name="ampersand" d="M708 0h-181l-43 44q-86 -56 -198 -56q-107 0 -177.5 50.5t-70.5 149.5q0 64 33 106t106 85q-65 84 -65 150q0 89 61.5 136t145.5 47t143 -48t59 -132q0 -65 -37 -108.5t-104 -82.5q28 -31 97 -102q17 41 25 83h144q-9 -103 -68 -187zM318 582q-61 0 -61 -62q0 -34 34 -78 q48 27 66.5 45t18.5 43q0 23 -15 37.5t-43 14.5zM295 118q53 0 96 23q-64 66 -128 136q-45 -24 -63 -42t-18 -42q0 -35 29.5 -55t83.5 -20z"/>
<glyph unicode="&apos;" horiz-adv-x="294" glyph-name="quotesingle" d="M219 700v-113l-17 -210h-110l-16 210v113h143z"/>
<glyph unicode="(" horiz-adv-x="428" glyph-name="parenleft" d="M353 719q-74 -145 -104 -244.5t-30 -214.5t30 -214.5t104 -244.5l-109 -64q-168 243 -168 523t168 523z"/>
<glyph unicode=")" horiz-adv-x="428" glyph-name="parenright" d="M76 719l108 64q169 -245 169 -523t-169 -523l-108 64q73 145 103 244.5t30 214.5t-30 214.5t-103 244.5z"/>
<glyph unicode="*" horiz-adv-x="570" glyph-name="asterisk" d="M495 528l-125 -55l87 -107l-84 -67l-89 110l-88 -110l-83 67l86 107l-123 55l42 97l115 -50v125h104v-125l115 50z"/>
<glyph unicode="+" glyph-name="plus" d="M398 545v-181h179v-136h-179v-181h-143v181h-179v136h179v181h143z"/>
<glyph unicode="," horiz-adv-x="352" glyph-name="comma" d="M277 65q0 -50 -109 -237h-92l76 165q-53 20 -53 78q0 39 25 63t63 24q35 0 62.5 -21.5t27.5 -71.5z"/>
<glyph unicode="-" horiz-adv-x="488" glyph-name="hyphen" d="M413 365v-137h-337v137h337z"/>
<glyph unicode="." horiz-adv-x="329" glyph-name="period" d="M165 158q38 0 63.5 -24t25.5 -61t-25.5 -61t-63.5 -24t-63.5 24t-25.5 61t25.5 61t63.5 24z"/>
<glyph unicode="/" horiz-adv-x="375" glyph-name="slash" d="M361 770l-203 -770h-144l203 770h144z"/>
<glyph unicode="0" horiz-adv-x="694" glyph-name="zero" d="M347 712q141 0 221 -97.5t80 -264.5t-80 -264.5t-221 -97.5t-221 97.5t-80 264.5t80 264.5t221 97.5zM347 124q156 0 156 226t-156 226q-157 0 -157 -226t157 -226z"/>
<glyph unicode="1" horiz-adv-x="403" glyph-name="one" d="M263 700h65v-700h-143v534l-157 -66v141z"/>
<glyph unicode="2" horiz-adv-x="612" glyph-name="two" d="M272 136h303v-136h-537v102l204 178q113 100 143 134t30 71q0 38 -27.5 64.5t-79.5 26.5q-102 0 -119 -111h-144q7 113 81.5 180t187.5 67q112 0 179 -63.5t67 -156.5q0 -23 -5.5 -44.5t-11 -38t-23.5 -39t-27.5 -35t-38.5 -39.5t-42 -38.5t-52 -45.5l-86 -75z"/>
<glyph unicode="3" horiz-adv-x="614" glyph-name="three" d="M473 367q49 -20 76 -63t27 -102q0 -101 -71 -157.5t-190 -56.5q-115 0 -191.5 59t-85.5 171h145q17 -95 131 -95q118 0 118 93q0 78 -109 78h-93v125h75q106 0 106 70q0 40 -27 64t-82 24q-94 0 -113 -87h-144q11 107 82.5 164.5t178.5 57.5q109 0 179 -57.5t70 -146.5 q0 -46 -21.5 -83.5t-60.5 -57.5z"/>
<glyph unicode="4" horiz-adv-x="644" glyph-name="four" d="M616 287v-133l-98 -1v-153h-143v153h-347v134l279 413h211v-412zM181 288h194v279h-9z"/>
<glyph unicode="5" horiz-adv-x="616" glyph-name="five" d="M345 470q98 0 166 -62.5t68 -169.5q0 -113 -76 -181.5t-192 -68.5q-108 0 -186.5 60.5t-86.5 174.5h145q7 -50 42.5 -75t84.5 -25q56 0 90 33t34 84t-34 81.5t-88 30.5q-81 0 -116 -58h-137l87 406h400v-136h-293l-26 -126q51 32 118 32z"/>
<glyph unicode="6" horiz-adv-x="619" glyph-name="six" d="M351 477q94 0 162 -60.5t68 -168.5q0 -115 -78 -187.5t-193 -72.5t-193.5 71t-78.5 187q0 24 3 46t12 47.5t15.5 43.5t25 48.5t27.5 46t36 52t37.5 50.5t44.5 59t46 61h169l-190 -243q45 20 87 20zM309 124q56 0 91.5 34t35.5 90t-35.5 88t-90.5 32q-57 0 -92.5 -32.5 t-35.5 -88.5t36 -89.5t91 -33.5z"/>
<glyph unicode="7" horiz-adv-x="555" glyph-name="seven" d="M28 700h500v-103l-295 -597h-162l285 564h-328v136z"/>
<glyph unicode="8" horiz-adv-x="613" glyph-name="eight" d="M467 366q52 -22 80 -66.5t28 -102.5q0 -96 -75.5 -152.5t-193.5 -56.5q-117 0 -192.5 56.5t-75.5 152.5q0 58 28 102.5t80 66.5q-41 20 -64.5 59t-23.5 88q0 87 71 143t177 56q107 0 178 -56t71 -143q0 -49 -23.5 -88t-64.5 -59zM306 578q-52 0 -78.5 -22.5t-26.5 -60.5 q0 -74 105 -74q106 0 106 74q0 38 -27 60.5t-79 22.5zM306 122q60 0 92.5 22.5t32.5 65.5q0 87 -125 87q-124 0 -124 -87q0 -43 32.5 -65.5t91.5 -22.5z"/>
<glyph unicode="9" horiz-adv-x="619" glyph-name="nine" d="M309 712q115 0 193.5 -71t78.5 -187q0 -24 -3 -46t-12 -47.5t-16 -44t-25 -48t-28 -46t-35.5 -51.5t-37.5 -51.5t-44.5 -59t-46.5 -60.5h-168l189 243q-43 -20 -86 -20q-94 0 -162 60.5t-68 168.5q0 115 78 187.5t193 72.5zM309 332q57 0 92 32.5t35 88.5t-35.5 89.5 t-90.5 33.5q-56 0 -92 -34t-36 -90t35.5 -88t91.5 -32z"/>
<glyph unicode=":" horiz-adv-x="329" glyph-name="colon" d="M165 522q38 0 63.5 -24t25.5 -61t-25.5 -61t-63.5 -24t-63.5 24t-25.5 61t25.5 61t63.5 24zM165 158q38 0 63.5 -24t25.5 -61t-25.5 -61t-63.5 -24t-63.5 24t-25.5 61t25.5 61t63.5 24z"/>
<glyph unicode=";" horiz-adv-x="352" glyph-name="semicolon" d="M188 352q-38 0 -63.5 24t-25.5 61t25.5 61t63.5 24t63.5 -24t25.5 -61t-25.5 -61t-63.5 -24zM277 65q0 -50 -109 -237h-92l76 165q-53 20 -53 78q0 39 25 63t63 24q35 0 62.5 -21.5t27.5 -71.5z"/>
<glyph unicode="&lt;" glyph-name="less" d="M577 515v-148l-284 -74l284 -74v-149l-501 176v93z"/>
<glyph unicode="=" glyph-name="equal" d="M577 472v-131h-501v131h501zM577 263v-131h-501v131h501z"/>
<glyph unicode="&gt;" glyph-name="greater" d="M76 516l501 -177v-93l-501 -176v150l282 73l-282 73v150z"/>
<glyph unicode="?" horiz-adv-x="576" glyph-name="question" d="M213 234v52q0 51 21 75t83 57q46 24 62 39t16 42q0 36 -26 58t-80 22q-100 0 -107 -105h-144q4 114 75 176t182 62q107 0 175.5 -55.5t68.5 -152.5q0 -68 -33.5 -105t-104.5 -74q-28 -15 -38.5 -29t-10.5 -38v-24h-139zM282 -12q-39 0 -65 23.5t-26 61.5t26 61.5t65 23.5 q40 0 66 -23.5t26 -61.5t-26 -61.5t-66 -23.5z"/>
<glyph unicode="@" horiz-adv-x="1134" glyph-name="at" d="M579 782q221 0 365 -132t144 -359q0 -142 -59 -217.5t-165 -75.5q-126 0 -168 100q-58 -100 -168 -100q-97 0 -160.5 72t-63.5 183q0 112 63.5 184t158.5 72q99 0 156 -81v70h126l-1 -302q0 -39 18.5 -58.5t49.5 -19.5q84 0 84 156q0 100 -29.5 176t-82 121.5t-119 68 t-146.5 22.5q-182 0 -294.5 -108.5t-112.5 -294.5q0 -187 109.5 -294t286.5 -107q104 0 184 37l25 -117q-95 -40 -213 -40q-230 0 -375.5 144t-145.5 376q0 233 149.5 378.5t383.5 145.5zM556 120q54 0 89.5 37t35.5 96t-35.5 96.5t-89.5 37.5t-88.5 -37.5t-34.5 -96.5 t35 -96t88 -37z"/>
<glyph unicode="A" horiz-adv-x="761" glyph-name="A" d="M581 0l-59 165h-283l-60 -165h-151l262 700h181l262 -700h-152zM288 301h184l-92 254z"/>
<glyph unicode="B" horiz-adv-x="659" glyph-name="B" d="M510 377q55 -18 83 -64.5t28 -110.5q0 -95 -63.5 -148.5t-172.5 -53.5h-309v700h307q99 0 156.5 -47t57.5 -135q0 -97 -87 -141zM453 494q0 38 -21.5 54t-67.5 16h-145v-141h149q85 0 85 71zM382 136q52 0 73 20t21 58q0 40 -21 59t-74 19h-162v-156h163z"/>
<glyph unicode="C" horiz-adv-x="788" glyph-name="C" d="M412 -12q-156 0 -259 103.5t-103 258.5t103 258.5t259 103.5q124 0 215.5 -69.5t122.5 -182.5h-153q-25 55 -73.5 85.5t-112.5 30.5q-96 0 -156.5 -63.5t-60.5 -162.5t60.5 -162.5t156.5 -63.5q64 0 112.5 30.5t73.5 85.5h153q-31 -113 -122.5 -182.5t-215.5 -69.5z"/>
<glyph unicode="D" horiz-adv-x="733" glyph-name="D" d="M329 700q153 0 255.5 -100t102.5 -250t-102.5 -250t-255.5 -100h-253v700h253zM329 136q95 0 155 60t60 154t-60 154t-155 60h-110v-428h110z"/>
<glyph unicode="E" horiz-adv-x="584" glyph-name="E" d="M546 564h-327v-141h300v-136h-300v-151h327v-136h-470v700h470v-136z"/>
<glyph unicode="F" horiz-adv-x="584" glyph-name="F" d="M546 564h-327v-147h300v-136h-300v-281h-143v700h470v-136z"/>
<glyph unicode="G" horiz-adv-x="823" glyph-name="G" d="M369 380h383v-380h-122v118q-25 -58 -87.5 -94t-148.5 -36q-148 0 -248 102.5t-100 258.5q0 157 102.5 260t259.5 103q124 0 215.5 -67.5t122.5 -176.5h-153q-25 51 -73.5 79.5t-112.5 28.5q-97 0 -157 -64t-60 -165q0 -98 57.5 -162.5t157.5 -64.5q73 0 127 37t72 103 h-235v120z"/>
<glyph unicode="H" horiz-adv-x="749" glyph-name="H" d="M530 700h143v-700h-143v290h-311v-290h-143v700h143v-274h311v274z"/>
<glyph unicode="I" horiz-adv-x="294" glyph-name="I" d="M76 0v700h143v-700h-143z"/>
<glyph unicode="J" horiz-adv-x="583" glyph-name="J" d="M363 700h144v-468q0 -117 -68 -180.5t-173 -63.5q-104 0 -171 62.5t-67 179.5v36h144v-32q0 -110 94 -110q97 0 97 112v464z"/>
<glyph unicode="K" horiz-adv-x="689" glyph-name="K" d="M661 0h-179l-263 327v-327h-143v700h143v-310l249 310h177l-275 -339z"/>
<glyph unicode="L" horiz-adv-x="547" glyph-name="L" d="M219 136h300v-136h-443v700h143v-564z"/>
<glyph unicode="M" horiz-adv-x="834" glyph-name="M" d="M594 700h165v-700h-143v502l-195 -295h-13l-194 295v-502h-143v700h164l180 -269z"/>
<glyph unicode="N" horiz-adv-x="741" glyph-name="N" d="M527 700h143v-700h-165l-304 490l13 -197v-293h-143v700h164l305 -490l-13 197v293z"/>
<glyph unicode="O" horiz-adv-x="820" glyph-name="O" d="M410 712q155 0 260 -104t105 -258t-105 -258t-260 -104t-259.5 104t-104.5 258t104.5 258t259.5 104zM410 576q-95 0 -157.5 -64t-62.5 -162t62.5 -162t157.5 -64t157.5 64t62.5 162t-62.5 162t-157.5 64z"/>
<glyph unicode="P" horiz-adv-x="664" glyph-name="P" d="M370 700q114 0 181.5 -63t67.5 -172q0 -110 -68 -174.5t-181 -64.5h-151v-226h-143v700h294zM364 362q54 0 82 27t28 74q0 48 -28 74.5t-82 26.5h-145v-202h145z"/>
<glyph unicode="Q" horiz-adv-x="820" glyph-name="Q" d="M775 350q0 -150 -100 -253l100 -133l-109 -82l-104 137q-71 -31 -152 -31q-155 0 -259.5 104t-104.5 258t104.5 258t259.5 104t260 -104t105 -258zM190 350q0 -98 62.5 -162t157.5 -64t157.5 64t62.5 162t-62.5 162t-157.5 64t-157.5 -64t-62.5 -162z"/>
<glyph unicode="R" horiz-adv-x="682" glyph-name="R" d="M479 0l-181 252h-79v-252h-143v700h301q112 0 175.5 -61.5t63.5 -166.5q0 -84 -41 -137t-116 -72l196 -263h-176zM219 564v-187h142q55 0 82.5 24.5t27.5 68.5t-28 69t-82 25h-142z"/>
<glyph unicode="S" horiz-adv-x="646" glyph-name="S" d="M327 427q77 -16 124 -32t86 -40.5t55.5 -60.5t16.5 -87q0 -58 -24.5 -102.5t-65 -68.5t-85 -36t-91.5 -12q-143 0 -217.5 67.5t-87.5 169.5h144q15 -54 51.5 -79t108.5 -25q60 0 91.5 21t31.5 59q0 24 -17.5 38.5t-42.5 21.5t-89 21l-7.5 1.5t-7 1.5t-8.5 2 q-54 11 -91 24t-73 36t-54.5 59t-18.5 86q0 104 78 162t186 58q132 0 200.5 -60.5t81.5 -156.5h-145q-26 84 -136 84q-61 0 -91 -22.5t-30 -58.5q0 -29 25.5 -42t101.5 -29z"/>
<glyph unicode="T" horiz-adv-x="602" glyph-name="T" d="M574 700v-136h-202v-564h-143v564h-201v136h546z"/>
<glyph unicode="U" horiz-adv-x="725" glyph-name="U" d="M509 700h145v-417q0 -143 -80 -219t-209 -76t-209 76t-80 219v417h145v-409q0 -167 144 -167t144 167v409z"/>
<glyph unicode="V" horiz-adv-x="696" glyph-name="V" d="M517 700h151l-231 -700h-180l-229 700h151l168 -531z"/>
<glyph unicode="W" horiz-adv-x="1011" glyph-name="W" d="M836 700h147l-177 -700h-177l-64 253l-50 278h-19l-50 -278l-64 -253h-177l-177 700h147l84 -335l36 -209l36 209l84 335h181l83 -335l37 -211l36 211z"/>
<glyph unicode="X" horiz-adv-x="683" glyph-name="X" d="M656 0h-171l-145 241l-142 -241h-170l226 363l-215 337h170l135 -225l136 225h170l-219 -348z"/>
<glyph unicode="Y" horiz-adv-x="694" glyph-name="Y" d="M666 700l-247 -469v-231h-144l1 230l-248 470h161l158 -309l158 309h161z"/>
<glyph unicode="Z" horiz-adv-x="597" glyph-name="Z" d="M217 136h343v-136h-522v136l340 428h-324v136h503l1 -136z"/>
<glyph unicode="[" horiz-adv-x="424" glyph-name="bracketleft" d="M349 770v-136h-130v-748h130v-136h-273v1020h273z"/>
<glyph unicode="\" horiz-adv-x="499" glyph-name="backslash" d="M220 770l203 -770h-144l-203 770h144z"/>
<glyph unicode="]" horiz-adv-x="424" glyph-name="bracketright" d="M76 770h273v-1020h-273v136h130v748h-130v136z"/>
<glyph unicode="^" horiz-adv-x="623" glyph-name="asciicircum" d="M311 712l236 -235l-101 -101l-135 134l-134 -134l-101 101z"/>
<glyph unicode="_" horiz-adv-x="611" glyph-name="underscore" d="M536 -19v-136h-460v136h460z"/>
<glyph unicode="`" horiz-adv-x="398" glyph-name="grave" d="M160 839l163 -163l-63 -62l-184 140z"/>
<glyph unicode="a" horiz-adv-x="668" glyph-name="a" d="M468 550h143l-1 -550h-143v74q-63 -86 -172 -86t-180 80.5t-71 206.5t71.5 206.5t178.5 80.5q110 0 174 -89v77zM327 124q61 0 101 42t40 109t-40 109t-101 42t-100 -42t-39 -109t39.5 -109t99.5 -42z"/>
<glyph unicode="b" horiz-adv-x="668" glyph-name="b" d="M374 562q107 0 179 -80.5t72 -206.5t-71.5 -206.5t-179.5 -80.5q-110 0 -174 86v-74h-143v770h143v-297q64 89 174 89zM341 124q60 0 99.5 42t39.5 109t-39 109t-100 42t-101 -42t-40 -109t40 -109t101 -42z"/>
<glyph unicode="c" horiz-adv-x="639" glyph-name="c" d="M330 -12q-123 0 -204.5 82t-81.5 205t81.5 205t205.5 82q104 0 181.5 -59.5t92.5 -161.5h-147q-12 43 -46.5 66t-80.5 23q-65 0 -104 -43t-38 -112q-1 -69 38.5 -112t102.5 -43q46 0 81 23t47 67h147q-16 -105 -93.5 -163.5t-181.5 -58.5z"/>
<glyph unicode="d" horiz-adv-x="676" glyph-name="d" d="M476 770h143v-770h-143v74q-63 -86 -173 -86q-108 0 -179.5 80.5t-71.5 206.5t71.5 206.5t178.5 80.5q110 0 174 -89v297zM335 124q61 0 101 42t40 109t-40 109t-101 42t-100 -42t-39 -109t39.5 -109t99.5 -42z"/>
<glyph unicode="e" glyph-name="e" d="M331 562q135 0 213.5 -93t67.5 -231h-422q7 -64 46 -98t97 -34q42 0 75 18.5t47 50.5h148q-29 -93 -102 -140t-167 -47q-128 0 -209 81t-81 205t81 206t206 82zM330 444q-51 0 -85 -27.5t-48 -73.5h263q-12 46 -46 73.5t-84 27.5z"/>
<glyph unicode="f" horiz-adv-x="487" glyph-name="f" d="M360 657q-97 0 -97 -105v-2h183v-135h-183v-415h-143v415h-98v135h98v9q0 110 65 166.5t159 56.5q75 0 130 -25l-26 -116l-19 5q-38 11 -69 11z"/>
<glyph unicode="g" horiz-adv-x="668" glyph-name="g" d="M468 550h143v-543q0 -122 -74 -195.5t-198 -73.5q-107 0 -185.5 54t-93.5 157h148q22 -84 127 -84q133 0 133 138v79q-64 -86 -173 -86q-108 0 -179.5 80t-71.5 203t72 203t179 80q110 0 173 -88v76zM327 132q61 0 101 41t40 106q0 64 -40.5 105.5t-100.5 41.5 t-99.5 -41.5t-39.5 -105.5t39.5 -105.5t99.5 -41.5z"/>
<glyph unicode="h" horiz-adv-x="626" glyph-name="h" d="M376 562q92 0 145 -58t53 -159v-345h-143v314q0 56 -24 84t-79 28q-123 0 -123 -137v-289h-143v770h143v-295q62 87 171 87z"/>
<glyph unicode="i" horiz-adv-x="258" glyph-name="i" d="M129 804q39 0 64 -23.5t25 -60.5t-25 -61t-64 -24q-38 0 -63.5 24t-25.5 61q0 36 25.5 60t63.5 24zM57 0v550h143v-550h-143z"/>
<glyph unicode="j" horiz-adv-x="258" glyph-name="j" d="M129 804q39 0 64 -23.5t25 -60.5t-25 -61t-64 -24q-38 0 -63.5 24t-25.5 61q0 36 25.5 60t63.5 24zM57 -250v800h143v-800h-143z"/>
<glyph unicode="k" horiz-adv-x="634" glyph-name="k" d="M613 0h-183l-225 240v-240h-143v770h143v-449l209 229h182l-251 -262z"/>
<glyph unicode="l" horiz-adv-x="258" glyph-name="l" d="M58 0v770h143v-770h-143z"/>
<glyph unicode="m" horiz-adv-x="957" glyph-name="m" d="M715 562q88 0 139 -57t51 -157v-348h-143v317q0 54 -22.5 81.5t-72.5 27.5q-56 0 -85 -35.5t-29 -101.5v-289h-143v317q0 54 -22.5 81.5t-72.5 27.5q-56 0 -85.5 -35.5t-29.5 -101.5l1 -289h-144v550h144v-73q60 85 163 85q120 0 167 -104q64 104 184 104z"/>
<glyph unicode="n" horiz-adv-x="622" glyph-name="n" d="M371 562q93 0 146 -58t53 -159v-345h-143v314q0 56 -24 84t-79 28q-124 0 -124 -137v-289h-143v550h143v-75q62 87 171 87z"/>
<glyph unicode="o" horiz-adv-x="660" glyph-name="o" d="M330 562q120 0 203.5 -82t83.5 -205q0 -124 -82.5 -205.5t-204.5 -81.5q-121 0 -203.5 82t-82.5 205t83 205t203 82zM330 426q-61 0 -101.5 -42t-40.5 -109t40.5 -109t101.5 -42t101.5 42t40.5 109t-40.5 109t-101.5 42z"/>
<glyph unicode="p" horiz-adv-x="673" glyph-name="p" d="M379 562q107 0 179 -80.5t72 -206.5t-71.5 -206.5t-179.5 -80.5q-109 0 -174 86v-324h-143v800h143v-77q64 89 174 89zM346 124q60 0 99.5 42t39.5 109t-39 109t-100 42t-101 -42t-40 -109t40 -109t101 -42z"/>
<glyph unicode="q" horiz-adv-x="668" glyph-name="q" d="M468 550h143v-800h-143v324q-63 -86 -173 -86q-109 0 -180 80.5t-71 206.5t71.5 206.5t178.5 80.5q110 0 174 -89v77zM327 124q61 0 101 42t40 109t-40 109t-101 42t-100 -42t-39 -109t39.5 -109t99.5 -42z"/>
<glyph unicode="r" horiz-adv-x="425" glyph-name="r" d="M372 562q14 0 32 -2v-147q-22 2 -35 2q-76 0 -122.5 -39.5t-46.5 -130.5v-245h-143v550h143v-96q51 108 172 108z"/>
<glyph unicode="s" horiz-adv-x="592" glyph-name="s" d="M311 -12q-111 0 -185 51.5t-89 141.5h145q18 -74 133 -74q93 0 93 45q0 6 -1.5 11t-5 9t-7.5 7.5t-11.5 6.5t-13.5 5t-17.5 5t-20 5t-23.5 5t-26 6q-123 29 -171.5 63.5t-48.5 103.5q0 86 65.5 134.5t175.5 48.5t171 -47.5t76 -128.5h-145q-18 56 -107 56q-92 0 -92 -46 q0 -18 19 -26t86 -23t106 -27.5t74 -32.5t50 -48t15 -68q0 -89 -69 -136t-176 -47z"/>
<glyph unicode="t" horiz-adv-x="526" glyph-name="t" d="M466 148l24 -116q-25 -17 -71.5 -30.5t-92.5 -13.5q-89 0 -147.5 56t-58.5 168v203h-98v135h98v119l143 31v-150h204v-135h-204v-195q0 -99 88 -99q39 0 115 27z"/>
<glyph unicode="u" horiz-adv-x="617" glyph-name="u" d="M418 550h143v-550h-143v76q-63 -88 -170 -88q-91 0 -143.5 58.5t-52.5 158.5v345h143v-314q0 -56 23.5 -84t77.5 -28q59 0 90.5 35t31.5 102v289z"/>
<glyph unicode="v" horiz-adv-x="593" glyph-name="v" d="M419 550h152l-189 -550h-171l-189 550h152l122 -395z"/>
<glyph unicode="w" horiz-adv-x="877" glyph-name="w" d="M713 550h142l-151 -550h-165l-51 185l-40 223h-19l-40 -223l-51 -185h-165l-151 550h142l46 -173l49 -221l48 221l46 173h171l46 -173l48 -219l49 219z"/>
<glyph unicode="x" horiz-adv-x="606" glyph-name="x" d="M584 0h-170l-113 173l-107 -173h-172l194 284l-184 266h170l104 -161l97 161h172l-184 -270z"/>
<glyph unicode="y" horiz-adv-x="621" glyph-name="y" d="M447 550h153l-358 -800h-152l144 323l-212 477h152l136 -322z"/>
<glyph unicode="z" horiz-adv-x="545" glyph-name="z" d="M222 135h286v-135h-471v135l278 280h-262v135h448v-135z"/>
<glyph unicode="{" horiz-adv-x="527" glyph-name="braceleft" d="M342 405q0 -75 -28 -105t-92 -40q64 -10 92 -40t28 -105v-26q0 -123 24.5 -165.5t84.5 -49.5v-136q-50 0 -93.5 17t-80 51t-57.5 94t-21 138v34q0 65 -17 91t-75 26h-31v142h31q58 0 75 26t17 91v34q0 78 21 138t57.5 94t80 51t93.5 17v-136q-60 -7 -84.5 -49.5 t-24.5 -165.5v-26z"/>
<glyph unicode="|" horiz-adv-x="294" glyph-name="bar" d="M219 700v-794h-143v794h143z"/>
<glyph unicode="}" horiz-adv-x="527" glyph-name="braceright" d="M420 331h31v-142h-31q-58 0 -75 -26t-17 -91v-34q0 -78 -21 -138t-57.5 -94t-80 -51t-93.5 -17v136q40 5 61.5 21.5t34.5 63t13 130.5v26q0 75 28 105t92 40q-64 10 -92 40t-28 105v26q0 84 -13 130.5t-34.5 63t-61.5 21.5v136q50 0 93.5 -17t80 -51t57.5 -94t21 -138 v-34q0 -65 17 -91t75 -26z"/>
<glyph unicode="~" horiz-adv-x="640" glyph-name="asciitilde" d="M435 224q-7 0 -14 0.5t-14.5 2t-12 2.5t-13 4t-12 4t-13.5 5.5t-13 6l-15 7.5t-15 7l-22 11t-17.5 9t-12.5 6.5t-11 4.5t-9 2t-9 1q-39 0 -39 -63h-117q0 104 34 147t95 43q21 0 43 -6t34 -11.5t45 -22.5q11 -5 26 -12.5t20.5 -10.5t13 -6t12 -4t9.5 -1q39 0 39 64h118 q0 -105 -34 -147.5t-96 -42.5z"/>
<glyph unicode="¡" horiz-adv-x="329" glyph-name="exclamdown" d="M165 309q-38 0 -63.5 24t-25.5 61t25.5 61t63.5 24t63.5 -24t25.5 -61t-25.5 -61t-63.5 -24zM236 -234h-143v232l9 235h125l9 -235v-232z"/>
<glyph unicode="¢" horiz-adv-x="639" glyph-name="cent" d="M330 120q46 0 81 23t47 67h147q-13 -85 -68.5 -140.5t-134.5 -74.5v-145h-143v146q-96 22 -155.5 98.5t-59.5 180.5t59.5 180t155.5 99v146h143v-145q80 -19 135.5 -74.5t67.5 -139.5h-147q-12 43 -46.5 66t-80.5 23q-65 0 -104 -43t-38 -112q-1 -69 38.5 -112t102.5 -43 z"/>
<glyph unicode="£" horiz-adv-x="744" glyph-name="sterling" d="M534 216h144q0 -115 -50.5 -165.5t-154.5 -50.5h-407v136h29q39 0 53 16.5t14 53.5v74h-96v126h96v81q0 99 59.5 162t170.5 63q108 0 173 -63t65 -167h-144q0 94 -88 94q-93 0 -93 -95v-75h171v-126h-171v-65q0 -57 -32 -79h180q49 0 65 16.5t16 63.5z"/>
<glyph unicode="¤" horiz-adv-x="750" glyph-name="currency" d="M614 348q0 -58 -26 -112l87 -87l-101 -101l-86 87q-52 -27 -113 -27q-60 0 -112 27l-86 -87l-101 101l87 87q-27 52 -27 112t27 112l-87 87l101 100l87 -87q52 27 111 27q60 0 112 -27l87 87l101 -100l-87 -88q26 -52 26 -111zM375 234q47 0 78.5 31.5t31.5 82.5 q0 50 -31.5 81.5t-78.5 31.5t-78 -31.5t-31 -81.5q0 -51 31.5 -82.5t77.5 -31.5z"/>
<glyph unicode="¥" horiz-adv-x="771" glyph-name="yen" d="M704 700l-218 -414h130v-76h-159v-46h159v-76h-159v-88h-143v88h-159v76h159v46h-159v76h129l-218 414h161l159 -309l158 309h160z"/>
<glyph unicode="¦" horiz-adv-x="294" glyph-name="brokenbar" d="M219 700v-356h-143v356h143zM219 262v-356h-143v356h143z"/>
<glyph unicode="§" horiz-adv-x="640" glyph-name="section" d="M482 200q40 -20 59.5 -49t19.5 -76q0 -88 -64 -136t-172 -48q-103 0 -165 44t-76 124h145q16 -59 100 -59q40 0 64 15t24 44q0 17 -17 25.5t-75 21.5q-44 10 -66.5 16t-57 17t-52 22.5t-36.5 28t-27 38.5t-8 49q0 76 80 127q-40 20 -59.5 49t-19.5 76q0 88 65 135.5 t172 47.5q103 0 164.5 -43t75.5 -123h-144q-17 58 -100 58q-40 0 -64.5 -15.5t-24.5 -43.5q0 -17 17 -25.5t75 -21.5q44 -10 66.5 -16t57 -17t52 -22.5t36.5 -28t27 -38.5t8 -49q0 -76 -80 -127zM225 308q0 -26 23 -36.5t106 -30.5q3 -1 9 -2.5t9 -2.5q43 28 43 59 q0 27 -23 37.5t-106 30.5q-6 2 -18 4q-43 -28 -43 -59z"/>
<glyph unicode="¨" horiz-adv-x="541" glyph-name="dieresis" d="M156 797q35 0 58 -21.5t23 -55.5t-23 -55.5t-58 -21.5t-57.5 21.5t-22.5 55.5t22.5 55.5t57.5 21.5zM383 797q35 0 58.5 -21.5t23.5 -55.5t-23.5 -55.5t-58.5 -21.5t-58 21.5t-23 55.5t23 55.5t58 21.5z"/>
<glyph unicode="©" horiz-adv-x="691" glyph-name="copyright" d="M346 782q112 0 191 -79t79 -191t-79 -191t-191 -79t-191 79t-79 191t79 191t191 79zM346 297q89 0 151.5 63t62.5 152t-62.5 152t-151.5 63t-152 -63t-63 -152t63 -152t152 -63zM347 584q-29 0 -47.5 -20t-18.5 -52q0 -31 18.5 -51t47.5 -20q45 0 57 39h75 q-9 -49 -46 -78t-86 -29q-59 0 -98.5 40t-39.5 99q0 60 39.5 100t98.5 40q49 0 86 -29.5t46 -77.5h-75q-12 39 -57 39z"/>
<glyph unicode="«" horiz-adv-x="774" glyph-name="guillemotleft" d="M308 46l-232 233l232 233l98 -99l-135 -134l135 -134zM601 46l-233 233l233 233l97 -99l-135 -134l135 -134z"/>
<glyph unicode="¬" glyph-name="logicalnot" d="M577 365v-264h-143v127h-358v137h501z"/>
<glyph unicode="®" horiz-adv-x="691" glyph-name="registered" d="M346 782q112 0 191 -79t79 -191t-79 -191t-191 -79t-191 79t-79 191t79 191t191 79zM346 297q89 0 151.5 63t62.5 152t-62.5 152t-151.5 63t-152 -63t-63 -152t63 -152t152 -63zM462 556q0 -61 -59 -79l72 -96h-83l-65 90h-17v-90h-69v260h134q41 0 64 -23t23 -62z M390 553q0 29 -33 29h-47v-59h47q33 0 33 30z"/>
<glyph unicode="¯" horiz-adv-x="401" glyph-name="macron" d="M326 770v-104h-250v104h250z"/>
<glyph unicode="°" horiz-adv-x="494" glyph-name="degree" d="M247 782q71 0 121.5 -50t50.5 -121t-50.5 -121.5t-121.5 -50.5t-121.5 50.5t-49.5 121.5q-1 71 49.5 121t121.5 50zM247 680q-29 0 -49 -20t-20 -50t20 -49.5t49 -19.5t49 19.5t20 49.5t-20 50.5t-49 19.5z"/>
<glyph unicode="±" glyph-name="plusminus" d="M398 545v-125h179v-108h-179v-126h-143v126h-179v108h179v125h143zM577 149v-108h-501v108h501z"/>
<glyph unicode="²" horiz-adv-x="424" glyph-name="uni00B2" d="M197 471h195v-98h-360v88l146 111q48 36 61.5 51t13.5 34q0 36 -42 36q-47 0 -51 -57h-125q4 61 50 103.5t129 42.5q80 0 121.5 -39t41.5 -93q0 -44 -31.5 -78.5t-100.5 -72.5z"/>
<glyph unicode="³" horiz-adv-x="425" glyph-name="uni00B3" d="M335 583q58 -31 58 -94q0 -52 -43.5 -90t-129.5 -38q-87 0 -135 39t-53 100h124q10 -49 59 -49q54 0 54 43q0 42 -42 42h-54v78h48q17 0 27 11.5t10 28.5q0 39 -45 39t-51 -50h-124q4 62 50 100.5t126 38.5q81 0 124.5 -38t43.5 -89q0 -48 -47 -72z"/>
<glyph unicode="´" horiz-adv-x="398" glyph-name="acute" d="M238 840l85 -85l-185 -140l-62 63z"/>
<glyph unicode="¶" horiz-adv-x="702" glyph-name="paragraph" d="M178 700h449v-801h-144v665h-122v-665h-143v504h-40q-44 0 -73 29t-29 73v93q0 44 29 73t73 29z"/>
<glyph unicode="·" horiz-adv-x="329" glyph-name="periodcentered" d="M165 397q38 0 63.5 -24t25.5 -61t-25.5 -61t-63.5 -24t-63.5 24t-25.5 61t25.5 61t63.5 24z"/>
<glyph unicode="¸" horiz-adv-x="347" glyph-name="cedilla" d="M204 -77q84 -22 84 -90q0 -47 -41 -71t-112 -24q-35 0 -59 3v70q28 -4 42 -4q60 0 60 34t-80 45l50 114h97z"/>
<glyph unicode="¹" horiz-adv-x="297" glyph-name="uni00B9" d="M201 770h64v-397h-122v272l-111 -35v109z"/>
<glyph unicode="»" horiz-adv-x="774" glyph-name="guillemotright" d="M173 46l-97 99l135 134l-135 134l97 99l233 -233zM465 46l-97 99l135 134l-135 134l97 99l233 -233z"/>
<glyph unicode="¼" horiz-adv-x="973" glyph-name="onequarter" d="M265 303h-122v272l-111 -35v109l169 51h64v-397zM589 700h136l-400 -700h-136zM941 171v-98h-70v-73h-123v73h-197v98l170 226h150v-226h70zM649 171h99v136z"/>
<glyph unicode="½" horiz-adv-x="1007" glyph-name="onehalf" d="M265 303h-122v272l-111 -35v109l169 51h64v-397zM589 700h136l-400 -700h-136zM780 98h195v-98h-360v88l146 111q48 36 61.5 51t13.5 33q0 36 -42 36q-47 0 -51 -56h-125q4 61 50 103.5t129 42.5q79 0 121 -39t42 -93q0 -44 -31.5 -78.5t-100.5 -72.5z"/>
<glyph unicode="¾" horiz-adv-x="1067" glyph-name="threequarters" d="M393 419q0 -52 -43.5 -90t-129.5 -38q-87 0 -135 39t-53 100h124q10 -49 59 -49q54 0 54 43q0 42 -42 42h-54v78h48q17 0 27 11.5t10 28.5q0 39 -45 39t-51 -50h-124q4 62 50 100.5t126 38.5q81 0 124.5 -38t43.5 -89q0 -48 -47 -72q58 -31 58 -94zM683 700h136 l-400 -700h-136zM1035 171v-98h-70v-73h-123v73h-197v98l170 226h150v-226h70zM743 171h99v136z"/>
<glyph unicode="¿" horiz-adv-x="576" glyph-name="questiondown" d="M294 462q40 0 66 -23.5t26 -61.5t-26 -61.5t-66 -23.5q-39 0 -65 23.5t-26 61.5t26 61.5t65 23.5zM364 216v-52q0 -51 -21 -75t-84 -57q-45 -24 -61 -39t-16 -42q0 -36 26 -58t79 -22q101 0 108 105h144q-5 -114 -76.5 -176t-181.5 -62q-107 0 -175 55.5t-68 152.5 q0 68 33.5 105t104.5 74q28 15 38 29t10 38v24h140z"/>
<glyph unicode="À" horiz-adv-x="761" glyph-name="Agrave" d="M504 833l-63 -63l-184 140l84 85zM581 0l-59 165h-283l-60 -165h-151l262 700h181l262 -700h-152zM288 301h184l-92 254z"/>
<glyph unicode="Á" horiz-adv-x="761" glyph-name="Aacute" d="M504 910l-185 -140l-62 63l162 162zM581 0l-59 165h-283l-60 -165h-151l262 700h181l262 -700h-152zM288 301h184l-92 254z"/>
<glyph unicode="Â" horiz-adv-x="761" glyph-name="Acircumflex" d="M381 864l-87 -94l-75 76l162 162l162 -162l-76 -76zM581 0l-59 165h-283l-60 -165h-151l262 700h181l262 -700h-152zM288 301h184l-92 254z"/>
<glyph unicode="Ã" horiz-adv-x="761" glyph-name="Atilde" d="M318 833q-32 0 -32 -49h-85q0 159 112 159q35 0 76 -30q35 -26 53 -26q32 0 32 50h86q0 -160 -112 -160q-36 0 -76 30q-35 26 -54 26zM581 0l-59 165h-283l-60 -165h-151l262 700h181l262 -700h-152zM288 301h184l-92 254z"/>
<glyph unicode="Ä" horiz-adv-x="761" glyph-name="Adieresis" d="M266 799q-35 0 -57.5 22t-22.5 56q0 33 23 55t57 22q35 0 58 -22t23 -55q0 -34 -23 -56t-58 -22zM493 799q-35 0 -58 22t-23 56q0 33 23 55t58 22t58.5 -22t23.5 -55q0 -34 -23.5 -56t-58.5 -22zM581 0l-59 165h-283l-60 -165h-151l262 700h181l262 -700h-152zM288 301 h184l-92 254z"/>
<glyph unicode="Å" horiz-adv-x="761" glyph-name="Aring" d="M379 770q-53 0 -91 38t-38 93q0 54 37.5 92t91.5 38q55 0 93 -38t38 -92q0 -55 -38.5 -93t-92.5 -38zM379 950q-20 0 -34.5 -14.5t-13.5 -35.5q0 -22 14 -36t34 -14q21 0 35 14t14 36t-14 36t-35 14zM581 0l-59 165h-283l-60 -165h-151l262 700h181l262 -700h-152z M288 301h184l-92 254z"/>
<glyph unicode="Æ" horiz-adv-x="890" glyph-name="AE" d="M853 564h-328v-141h301v-136h-301v-151h328v-136h-471v165h-143l-60 -165h-151l262 700h181h382v-136zM288 301h94v259z"/>
<glyph unicode="Ç" horiz-adv-x="788" glyph-name="Ccedilla" d="M411 124q64 0 112.5 30.5t73.5 85.5h153q-30 -107 -113.5 -175.5t-197.5 -76.5l-35 -65q37 -9 60.5 -32t23.5 -58q0 -47 -41 -71t-112 -24q-35 0 -59 3v70q28 -4 42 -4q60 0 60 34t-80 45l47 107q-131 23 -213 121.5t-82 235.5q0 155 103 258.5t259 103.5 q124 0 215.5 -69.5t122.5 -182.5h-153q-25 55 -73.5 85.5t-112.5 30.5q-96 0 -156.5 -63.5t-60.5 -162.5t60.5 -162.5t156.5 -63.5z"/>
<glyph unicode="È" horiz-adv-x="584" glyph-name="Egrave" d="M416 833l-63 -63l-184 140l84 85zM546 564h-327v-141h300v-136h-300v-151h327v-136h-470v700h470v-136z"/>
<glyph unicode="É" horiz-adv-x="584" glyph-name="Eacute" d="M416 910l-185 -140l-62 63l162 162zM546 564h-327v-141h300v-136h-300v-151h327v-136h-470v700h470v-136z"/>
<glyph unicode="Ê" horiz-adv-x="584" glyph-name="Ecircumflex" d="M293 864l-87 -94l-75 76l162 162l162 -162l-76 -76zM546 564h-327v-141h300v-136h-300v-151h327v-136h-470v700h470v-136z"/>
<glyph unicode="Ë" horiz-adv-x="584" glyph-name="Edieresis" d="M178 799q-35 0 -57.5 22t-22.5 56q0 33 23 55t57 22q35 0 58 -22t23 -55q0 -34 -23 -56t-58 -22zM405 799q-35 0 -58 22t-23 56q0 33 23 55t58 22t58.5 -22t23.5 -55q0 -34 -23.5 -56t-58.5 -22zM546 564h-327v-141h300v-136h-300v-151h327v-136h-470v700h470v-136z"/>
<glyph unicode="Ì" horiz-adv-x="294" glyph-name="Igrave" d="M108 995l163 -162l-63 -63l-184 140zM76 0v700h143v-700h-143z"/>
<glyph unicode="Í" horiz-adv-x="294" glyph-name="Iacute" d="M186 995l85 -85l-185 -140l-62 63zM76 0v700h143v-700h-143z"/>
<glyph unicode="Î" horiz-adv-x="294" glyph-name="Icircumflex" d="M309 846l-76 -76l-86 94l-87 -94l-75 76l162 162zM76 0v700h143v-700h-143z"/>
<glyph unicode="Ï" horiz-adv-x="294" glyph-name="Idieresis" d="M33 954q35 0 58 -22t23 -55q0 -34 -23 -56t-58 -22t-57.5 22t-22.5 56q0 33 23 55t57 22zM260 954q35 0 58.5 -22t23.5 -55q0 -34 -23.5 -56t-58.5 -22t-58 22t-23 56q0 33 23 55t58 22zM76 0v700h143v-700h-143z"/>
<glyph unicode="Ð" horiz-adv-x="733" glyph-name="Eth" d="M329 700q153 0 255.5 -100t102.5 -250t-102.5 -250t-255.5 -100h-253v282h-57v136h57v282h253zM329 136q95 0 155 60t60 154t-60 154t-155 60h-110v-146h105v-136h-105v-146h110z"/>
<glyph unicode="Ñ" horiz-adv-x="741" glyph-name="Ntilde" d="M308 833q-32 0 -32 -49h-85q0 159 112 159q35 0 76 -30q35 -26 53 -26q32 0 32 50h86q0 -160 -112 -160q-36 0 -76 30q-35 26 -54 26zM527 700h143v-700h-165l-304 490l13 -197v-293h-143v700h164l305 -490l-13 197v293z"/>
<glyph unicode="Ò" horiz-adv-x="820" glyph-name="Ograve" d="M371 995l163 -162l-63 -63l-184 140zM410 712q155 0 260 -104t105 -258t-105 -258t-260 -104t-259.5 104t-104.5 258t104.5 258t259.5 104zM410 576q-95 0 -157.5 -64t-62.5 -162t62.5 -162t157.5 -64t157.5 64t62.5 162t-62.5 162t-157.5 64z"/>
<glyph unicode="Ó" horiz-adv-x="820" glyph-name="Oacute" d="M449 995l85 -85l-185 -140l-62 63zM410 712q155 0 260 -104t105 -258t-105 -258t-260 -104t-259.5 104t-104.5 258t104.5 258t259.5 104zM410 576q-95 0 -157.5 -64t-62.5 -162t62.5 -162t157.5 -64t157.5 64t62.5 162t-62.5 162t-157.5 64z"/>
<glyph unicode="Ô" horiz-adv-x="820" glyph-name="Ocircumflex" d="M572 846l-76 -76l-86 94l-87 -94l-75 76l162 162zM410 712q155 0 260 -104t105 -258t-105 -258t-260 -104t-259.5 104t-104.5 258t104.5 258t259.5 104zM410 576q-95 0 -157.5 -64t-62.5 -162t62.5 -162t157.5 -64t157.5 64t62.5 162t-62.5 162t-157.5 64z"/>
<glyph unicode="Õ" horiz-adv-x="820" glyph-name="Otilde" d="M504 937h86q0 -160 -112 -160q-36 0 -76 30q-35 26 -54 26q-32 0 -32 -49h-85q0 159 112 159q36 0 76 -30q35 -26 53 -26q32 0 32 50zM410 712q155 0 260 -104t105 -258t-105 -258t-260 -104t-259.5 104t-104.5 258t104.5 258t259.5 104zM410 576q-95 0 -157.5 -64 t-62.5 -162t62.5 -162t157.5 -64t157.5 64t62.5 162t-62.5 162t-157.5 64z"/>
<glyph unicode="Ö" horiz-adv-x="820" glyph-name="Odieresis" d="M296 954q35 0 58 -22t23 -55q0 -34 -23 -56t-58 -22t-57.5 22t-22.5 56q0 33 23 55t57 22zM523 954q35 0 58.5 -22t23.5 -55q0 -34 -23.5 -56t-58.5 -22t-58 22t-23 56q0 33 23 55t58 22zM410 712q155 0 260 -104t105 -258t-105 -258t-260 -104t-259.5 104t-104.5 258 t104.5 258t259.5 104zM410 576q-95 0 -157.5 -64t-62.5 -162t62.5 -162t157.5 -64t157.5 64t62.5 162t-62.5 162t-157.5 64z"/>
<glyph unicode="×" horiz-adv-x="651" glyph-name="multiply" d="M478 546l97 -97l-153 -153l153 -153l-97 -96l-153 153l-153 -153l-96 96l153 153l-153 153l96 97l153 -153z"/>
<glyph unicode="Ø" horiz-adv-x="820" glyph-name="Oslash" d="M620 649q72 -49 113.5 -127t41.5 -172q0 -154 -105 -258t-260 -104q-49 0 -90 10l-15 -33h-144l39 86q-72 49 -113 127t-41 172q0 154 104.5 258t259.5 104q49 0 90 -10l15 33h145zM190 350q0 -104 70 -169l181 393q-20 2 -31 2q-95 0 -157.5 -64t-62.5 -162zM410 124 q95 0 157.5 64t62.5 162q0 104 -70 169l-181 -393q20 -2 31 -2z"/>
<glyph unicode="Ù" horiz-adv-x="725" glyph-name="Ugrave" d="M323 995l163 -162l-63 -63l-184 140zM509 700h145v-417q0 -143 -80 -219t-209 -76t-209 76t-80 219v417h145v-409q0 -167 144 -167t144 167v409z"/>
<glyph unicode="Ú" horiz-adv-x="725" glyph-name="Uacute" d="M401 995l85 -85l-185 -140l-62 63zM509 700h145v-417q0 -143 -80 -219t-209 -76t-209 76t-80 219v417h145v-409q0 -167 144 -167t144 167v409z"/>
<glyph unicode="Û" horiz-adv-x="725" glyph-name="Ucircumflex" d="M525 846l-76 -76l-86 94l-87 -94l-75 76l162 162zM509 700h145v-417q0 -143 -80 -219t-209 -76t-209 76t-80 219v417h145v-409q0 -167 144 -167t144 167v409z"/>
<glyph unicode="Ü" horiz-adv-x="725" glyph-name="Udieresis" d="M249 954q35 0 58 -22t23 -55q0 -34 -23 -56t-58 -22t-57.5 22t-22.5 56q0 33 23 55t57 22zM476 954q35 0 58.5 -22t23.5 -55q0 -34 -23.5 -56t-58.5 -22t-58 22t-23 56q0 33 23 55t58 22zM509 700h145v-417q0 -143 -80 -219t-209 -76t-209 76t-80 219v417h145v-409 q0 -167 144 -167t144 167v409z"/>
<glyph unicode="Ý" horiz-adv-x="694" glyph-name="Yacute" d="M471 910l-185 -140l-62 63l162 162zM666 700l-247 -469v-231h-144l1 230l-248 470h161l158 -309l158 309h161z"/>
<glyph unicode="Þ" horiz-adv-x="664" glyph-name="Thorn" d="M370 613q114 0 181.5 -63t67.5 -172q0 -110 -68 -174.5t-181 -64.5h-151v-139h-143v700h143v-87h151zM364 275q54 0 82 27t28 75q0 47 -28 73.5t-82 26.5h-145v-202h145z"/>
<glyph unicode="ß" horiz-adv-x="641" glyph-name="germandbls" d="M479 403q59 -19 92 -71.5t33 -124.5q0 -103 -63.5 -161t-157.5 -58q-85 0 -143 24l29 132q48 -20 88 -20q48 0 75 24.5t27 69.5q0 46 -29 70t-82 24h-79v136h68q37 0 62 25.5t25 69.5t-26.5 73.5t-81.5 29.5q-56 0 -86 -32.5t-30 -91.5v-522h-143v525q0 120 70 188.5 t189 68.5q117 0 185 -64t68 -159q0 -107 -90 -156z"/>
<glyph unicode="à" horiz-adv-x="668" glyph-name="agrave" d="M466 676l-63 -62l-184 140l84 85zM468 550h143l-1 -550h-143v74q-63 -86 -172 -86t-180 80.5t-71 206.5t71.5 206.5t178.5 80.5q110 0 174 -89v77zM327 124q61 0 101 42t40 109t-40 109t-101 42t-100 -42t-39 -109t39.5 -109t99.5 -42z"/>
<glyph unicode="á" horiz-adv-x="668" glyph-name="aacute" d="M466 755l-185 -140l-62 63l162 162zM468 550h143l-1 -550h-143v74q-63 -86 -172 -86t-180 80.5t-71 206.5t71.5 206.5t178.5 80.5q110 0 174 -89v77zM327 124q61 0 101 42t40 109t-40 109t-101 42t-100 -42t-39 -109t39.5 -109t99.5 -42z"/>
<glyph unicode="â" horiz-adv-x="668" glyph-name="acircumflex" d="M343 710l-87 -95l-75 76l162 162l162 -162l-76 -76zM468 550h143l-1 -550h-143v74q-63 -86 -172 -86t-180 80.5t-71 206.5t71.5 206.5t178.5 80.5q110 0 174 -89v77zM327 124q61 0 101 42t40 109t-40 109t-101 42t-100 -42t-39 -109t39.5 -109t99.5 -42z"/>
<glyph unicode="ã" horiz-adv-x="668" glyph-name="atilde" d="M280 686q-32 0 -32 -50h-85q0 160 112 160q34 0 76 -31q34 -25 53 -25q32 0 32 49h86q0 -160 -112 -160q-34 0 -76 31q-35 26 -54 26zM468 550h143l-1 -550h-143v74q-63 -86 -172 -86t-180 80.5t-71 206.5t71.5 206.5t178.5 80.5q110 0 174 -89v77zM327 124q61 0 101 42 t40 109t-40 109t-101 42t-100 -42t-39 -109t39.5 -109t99.5 -42z"/>
<glyph unicode="ä" horiz-adv-x="668" glyph-name="adieresis" d="M228 643q-35 0 -57.5 21.5t-22.5 55.5t22.5 55.5t57.5 21.5t58 -21.5t23 -55.5t-23 -55.5t-58 -21.5zM455 643q-35 0 -58 21.5t-23 55.5t23 55.5t58 21.5t58.5 -21.5t23.5 -55.5t-23.5 -55.5t-58.5 -21.5zM468 550h143l-1 -550h-143v74q-63 -86 -172 -86t-180 80.5 t-71 206.5t71.5 206.5t178.5 80.5q110 0 174 -89v77zM327 124q61 0 101 42t40 109t-40 109t-101 42t-100 -42t-39 -109t39.5 -109t99.5 -42z"/>
<glyph unicode="å" horiz-adv-x="668" glyph-name="aring" d="M341 615q-53 0 -91 38t-38 93q0 54 37.5 92t91.5 38q55 0 93 -38t38 -92q0 -55 -38.5 -93t-92.5 -38zM341 795q-20 0 -34.5 -14.5t-13.5 -35.5q0 -21 14 -35.5t34 -14.5q21 0 35 14.5t14 35.5q0 22 -14 36t-35 14zM468 550h143l-1 -550h-143v74q-63 -86 -172 -86 t-180 80.5t-71 206.5t71.5 206.5t178.5 80.5q110 0 174 -89v77zM327 124q61 0 101 42t40 109t-40 109t-101 42t-100 -42t-39 -109t39.5 -109t99.5 -42z"/>
<glyph unicode="æ" horiz-adv-x="1077" glyph-name="ae" d="M755 562q135 0 213.5 -93t67.5 -231h-422q7 -64 46 -98t97 -34q42 0 75 18.5t47 50.5h148q-29 -93 -102 -140t-167 -47q-99 0 -172 50v-39h-119l1 73q-65 -85 -173 -85t-179.5 80.5t-71.5 206.5t71.5 207t178.5 81q110 0 174 -89v76h119v-37q72 50 168 50zM754 444 q-51 0 -85 -27.5t-48 -73.5h263q-12 46 -46 73.5t-84 27.5zM327 123q61 0 101 42t40 109t-40 109t-101 42t-100 -42t-39 -109t39 -109t100 -42z"/>
<glyph unicode="ç" horiz-adv-x="639" glyph-name="ccedilla" d="M330 120q46 0 81 23t47 67h147q-14 -95 -80 -152.5t-158 -67.5l-35 -67q37 -9 60.5 -32t23.5 -58q0 -47 -41 -71t-112 -24q-35 0 -59 3v70q28 -4 42 -4q60 0 60 34t-80 45l47 107q-102 19 -165.5 96.5t-63.5 185.5q0 123 81.5 205t205.5 82q104 0 181.5 -59.5 t92.5 -161.5h-147q-12 43 -46.5 66t-80.5 23q-65 0 -104 -43t-38 -112q-1 -69 38.5 -112t102.5 -43z"/>
<glyph unicode="è" glyph-name="egrave" d="M449 676l-63 -62l-184 140l84 85zM331 562q135 0 213.5 -93t67.5 -231h-422q7 -64 46 -98t97 -34q42 0 75 18.5t47 50.5h148q-29 -93 -102 -140t-167 -47q-128 0 -209 81t-81 205t81 206t206 82zM330 444q-51 0 -85 -27.5t-48 -73.5h263q-12 46 -46 73.5t-84 27.5z"/>
<glyph unicode="é" glyph-name="eacute" d="M449 755l-185 -140l-62 63l162 162zM331 562q135 0 213.5 -93t67.5 -231h-422q7 -64 46 -98t97 -34q42 0 75 18.5t47 50.5h148q-29 -93 -102 -140t-167 -47q-128 0 -209 81t-81 205t81 206t206 82zM330 444q-51 0 -85 -27.5t-48 -73.5h263q-12 46 -46 73.5t-84 27.5z"/>
<glyph unicode="ê" glyph-name="ecircumflex" d="M326 710l-87 -95l-75 76l162 162l162 -162l-76 -76zM331 562q135 0 213.5 -93t67.5 -231h-422q7 -64 46 -98t97 -34q42 0 75 18.5t47 50.5h148q-29 -93 -102 -140t-167 -47q-128 0 -209 81t-81 205t81 206t206 82zM330 444q-51 0 -85 -27.5t-48 -73.5h263 q-12 46 -46 73.5t-84 27.5z"/>
<glyph unicode="ë" glyph-name="edieresis" d="M212 643q-35 0 -57.5 21.5t-22.5 55.5t22.5 55.5t57.5 21.5t58 -21.5t23 -55.5t-23 -55.5t-58 -21.5zM439 643q-35 0 -58 21.5t-23 55.5t23 55.5t58 21.5t58.5 -21.5t23.5 -55.5t-23.5 -55.5t-58.5 -21.5zM331 562q135 0 213.5 -93t67.5 -231h-422q7 -64 46 -98t97 -34 q42 0 75 18.5t47 50.5h148q-29 -93 -102 -140t-167 -47q-128 0 -209 81t-81 205t81 206t206 82zM330 444q-51 0 -85 -27.5t-48 -73.5h263q-12 46 -46 73.5t-84 27.5z"/>
<glyph unicode="ì" horiz-adv-x="258" glyph-name="igrave" d="M89 839l163 -163l-63 -62l-184 140zM57 0v550h143v-550h-143z"/>
<glyph unicode="í" horiz-adv-x="258" glyph-name="iacute" d="M167 840l85 -85l-185 -140l-62 63zM57 0v550h143v-550h-143z"/>
<glyph unicode="î" horiz-adv-x="258" glyph-name="icircumflex" d="M291 691l-76 -76l-86 95l-87 -95l-75 76l162 162zM57 0v550h143v-550h-143z"/>
<glyph unicode="ï" horiz-adv-x="258" glyph-name="idieresis" d="M15 797q35 0 58 -21.5t23 -55.5t-23 -55.5t-58 -21.5t-57.5 21.5t-22.5 55.5t22.5 55.5t57.5 21.5zM242 797q35 0 58.5 -21.5t23.5 -55.5t-23.5 -55.5t-58.5 -21.5t-58 21.5t-23 55.5t23 55.5t58 21.5zM57 0v550h143v-550h-143z"/>
<glyph unicode="ð" horiz-adv-x="657" glyph-name="eth" d="M614 673l-68 -59q68 -104 68 -274q-1 -177 -84 -264.5t-208 -87.5q-120 0 -199 78t-79 204q0 117 69.5 190t173.5 73q119 0 178 -92q-17 115 -98 161t-240 46v134q203 0 317 -69l76 65zM329 111q60 0 100 41.5t40 109.5q0 66 -41 107.5t-102 41.5t-100 -41t-39 -108 q0 -68 40.5 -109.5t101.5 -41.5z"/>
<glyph unicode="ñ" horiz-adv-x="622" glyph-name="ntilde" d="M249 686q-32 0 -32 -50h-85q0 160 112 160q34 0 76 -31q34 -25 53 -25q32 0 32 49h86q0 -160 -112 -160q-34 0 -76 31q-35 26 -54 26zM371 562q93 0 146 -58t53 -159v-345h-143v314q0 56 -24 84t-79 28q-124 0 -124 -137v-289h-143v550h143v-75q62 87 171 87z"/>
<glyph unicode="ò" horiz-adv-x="660" glyph-name="ograve" d="M290 839l163 -163l-63 -62l-184 140zM330 562q120 0 203.5 -82t83.5 -205q0 -124 -82.5 -205.5t-204.5 -81.5q-121 0 -203.5 82t-82.5 205t83 205t203 82zM330 426q-61 0 -101.5 -42t-40.5 -109t40.5 -109t101.5 -42t101.5 42t40.5 109t-40.5 109t-101.5 42z"/>
<glyph unicode="ó" horiz-adv-x="660" glyph-name="oacute" d="M368 840l85 -85l-185 -140l-62 63zM330 562q120 0 203.5 -82t83.5 -205q0 -124 -82.5 -205.5t-204.5 -81.5q-121 0 -203.5 82t-82.5 205t83 205t203 82zM330 426q-61 0 -101.5 -42t-40.5 -109t40.5 -109t101.5 -42t101.5 42t40.5 109t-40.5 109t-101.5 42z"/>
<glyph unicode="ô" horiz-adv-x="660" glyph-name="ocircumflex" d="M492 691l-76 -76l-86 95l-87 -95l-75 76l162 162zM330 562q120 0 203.5 -82t83.5 -205q0 -124 -82.5 -205.5t-204.5 -81.5q-121 0 -203.5 82t-82.5 205t83 205t203 82zM330 426q-61 0 -101.5 -42t-40.5 -109t40.5 -109t101.5 -42t101.5 42t40.5 109t-40.5 109t-101.5 42z "/>
<glyph unicode="õ" horiz-adv-x="660" glyph-name="otilde" d="M424 789h86q0 -160 -112 -160q-34 0 -76 31q-35 26 -54 26q-32 0 -32 -50h-85q0 160 112 160q34 0 76 -31q34 -25 53 -25q32 0 32 49zM330 562q120 0 203.5 -82t83.5 -205q0 -124 -82.5 -205.5t-204.5 -81.5q-121 0 -203.5 82t-82.5 205t83 205t203 82zM330 426 q-61 0 -101.5 -42t-40.5 -109t40.5 -109t101.5 -42t101.5 42t40.5 109t-40.5 109t-101.5 42z"/>
<glyph unicode="ö" horiz-adv-x="660" glyph-name="odieresis" d="M216 797q35 0 58 -21.5t23 -55.5t-23 -55.5t-58 -21.5t-57.5 21.5t-22.5 55.5t22.5 55.5t57.5 21.5zM443 797q35 0 58.5 -21.5t23.5 -55.5t-23.5 -55.5t-58.5 -21.5t-58 21.5t-23 55.5t23 55.5t58 21.5zM330 562q120 0 203.5 -82t83.5 -205q0 -124 -82.5 -205.5 t-204.5 -81.5q-121 0 -203.5 82t-82.5 205t83 205t203 82zM330 426q-61 0 -101.5 -42t-40.5 -109t40.5 -109t101.5 -42t101.5 42t40.5 109t-40.5 109t-101.5 42z"/>
<glyph unicode="÷" glyph-name="divide" d="M326 580q39 0 64 -23t25 -59q0 -37 -25 -60t-64 -23t-64 23t-25 60q0 36 25 59t64 23zM577 365v-137h-501v137h501zM326 179q39 0 64 -23.5t25 -59.5t-25 -59t-64 -23t-64 23t-25 59t25 59.5t64 23.5z"/>
<glyph unicode="ø" horiz-adv-x="660" glyph-name="oslash" d="M531 483q86 -83 86 -208q0 -124 -82.5 -205.5t-204.5 -81.5q-69 0 -131 30l-13 -18h-106l49 68q-85 82 -85 207q0 123 83 205t203 82q68 0 130 -30l13 18h106zM188 275q0 -51 25 -89l166 232q-24 8 -49 8q-61 0 -101.5 -42t-40.5 -109zM330 124q61 0 101.5 42t40.5 109 q0 51 -25 90l-166 -233q24 -8 49 -8z"/>
<glyph unicode="ù" horiz-adv-x="617" glyph-name="ugrave" d="M430 676l-63 -62l-184 140l84 85zM418 550h143v-550h-143v76q-63 -88 -170 -88q-91 0 -143.5 58.5t-52.5 158.5v345h143v-314q0 -56 23.5 -84t77.5 -28q59 0 90.5 35t31.5 102v289z"/>
<glyph unicode="ú" horiz-adv-x="617" glyph-name="uacute" d="M430 755l-185 -140l-62 63l162 162zM418 550h143v-550h-143v76q-63 -88 -170 -88q-91 0 -143.5 58.5t-52.5 158.5v345h143v-314q0 -56 23.5 -84t77.5 -28q59 0 90.5 35t31.5 102v289z"/>
<glyph unicode="û" horiz-adv-x="617" glyph-name="ucircumflex" d="M307 710l-87 -95l-75 76l162 162l162 -162l-76 -76zM418 550h143v-550h-143v76q-63 -88 -170 -88q-91 0 -143.5 58.5t-52.5 158.5v345h143v-314q0 -56 23.5 -84t77.5 -28q59 0 90.5 35t31.5 102v289z"/>
<glyph unicode="ü" horiz-adv-x="617" glyph-name="udieresis" d="M192 643q-35 0 -57.5 21.5t-22.5 55.5t22.5 55.5t57.5 21.5t58 -21.5t23 -55.5t-23 -55.5t-58 -21.5zM419 643q-35 0 -58 21.5t-23 55.5t23 55.5t58 21.5t58.5 -21.5t23.5 -55.5t-23.5 -55.5t-58.5 -21.5zM418 550h143v-550h-143v76q-63 -88 -170 -88q-91 0 -143.5 58.5 t-52.5 158.5v345h143v-314q0 -56 23.5 -84t77.5 -28q59 0 90.5 35t31.5 102v289z"/>
<glyph unicode="ý" horiz-adv-x="621" glyph-name="yacute" d="M434 755l-185 -140l-62 63l162 162zM447 550h153l-358 -800h-152l144 323l-212 477h152l136 -322z"/>
<glyph unicode="þ" horiz-adv-x="673" glyph-name="thorn" d="M379 562q107 0 179 -80.5t72 -206.5t-71.5 -206.5t-179.5 -80.5q-109 0 -174 86v-324h-143v1020h143v-297q64 89 174 89zM346 124q60 0 99.5 42t39.5 109t-39 109t-100 42t-101 -42t-40 -109t40 -109t101 -42z"/>
</font>
</defs>
</svg>
