<?xml version="1.0" encoding="UTF-8" standalone="no"?>
<!DOCTYPE svg  PUBLIC '-//W3C//DTD SVG 1.1//EN'  'http://www.w3.org/Graphics/SVG/1.1/DTD/svg11.dtd'>
<svg version="1.1" xmlns="http://www.w3.org/2000/svg">
<defs>
<font id="Stolzl-Regular" horiz-adv-x="673">
<font-face underline-thickness="50" unicode-range="U+0020-00FE" panose-1="0 0 5 0 0 0 0 0 0 0" underline-position="-150" descent="-200" units-per-em="1000" x-height="550" bbox="-59 -262 1087 1022" font-family="Stolzl" font-weight="400" ascent="800" cap-height="700"/>
<missing-glyph/>
<glyph horiz-adv-x="300" glyph-name="space" unicode=" "/>
<glyph horiz-adv-x="310" d="M212 700v-252l-7 -228h-99l-8 228v252h114zM155 130q32 0 53 -20t21 -51t-21 -51t-53 -20t-52.5 20t-20.5 51t20.5 51t52.5 20z" glyph-name="exclam" unicode="!"/>
<glyph horiz-adv-x="467" d="M95 377l-13 204v119h113v-119l-14 -204h-86zM286 377l-13 204v119h113v-119l-14 -204h-86z" glyph-name="quotedbl" unicode='&quot;'/>
<glyph horiz-adv-x="931" d="M825 476h-149l-45 -168h150l-24 -92h-150l-57 -216h-104l57 216h-167l-57 -216h-104l57 216h-150l24 92h150l44 168h-150l25 92h149l54 202h104l-53 -202h166l54 202h104l-53 -202h150zM527 308l44 168h-166l-45 -168h167z" glyph-name="numbersign" unicode="#"/>
<glyph horiz-adv-x="644" d="M603 201q0 -96 -64.5 -149t-158.5 -62v-114h-112v118q-102 17 -158 77.5t-69 145.5h114q16 -62 60.5 -92.5t125.5 -30.5q71 0 109.5 26.5t38.5 75.5q0 44 -36 62t-141 41q-7 1 -10 2q-58 13 -96 26t-74.5 35t-54 56.5t-17.5 81.5q0 89 59 143t151 66v115h113v-117 q93 -14 145 -67t66 -130h-114q-33 96 -162 96q-70 0 -107.5 -27.5t-37.5 -75.5q0 -36 32.5 -53.5t123.5 -37.5q74 -16 118.5 -30.5t83.5 -38.5t55.5 -58t16.5 -84z" glyph-name="dollar" unicode="$"/>
<glyph horiz-adv-x="1085" d="M271 291q-86 0 -137.5 54.5t-51.5 155.5t51.5 156t137.5 55q85 0 137 -55.5t52 -155.5t-51.5 -155t-137.5 -55zM797 700l-400 -700h-109l400 700h109zM271 379q90 0 90 122t-90 122t-90 -122t90 -122zM815 409q86 0 137.5 -55t51.5 -155t-52 -155.5t-137 -55.5 q-86 0 -137.5 55t-51.5 156t51.5 155.5t137.5 54.5zM815 321q-91 0 -91 -122t91 -122q90 0 90 122t-90 122z" glyph-name="percent" unicode="%"/>
<glyph horiz-adv-x="721" d="M680 0h-143q-6 6 -24.5 25t-27.5 29q-89 -66 -204 -66q-105 0 -172.5 50t-67.5 144q0 63 35 104.5t111 87.5q-74 92 -74 162q0 83 57.5 129.5t139.5 46.5q81 0 135 -46t54 -124q0 -63 -38.5 -106t-113.5 -89q42 -46 131 -138q25 49 35 111h115q-13 -111 -71 -192 q21 -22 63 -65.5t60 -62.5zM309 608q-37 0 -59.5 -20.5t-22.5 -58.5q0 -41 50 -104q63 39 85.5 62.5t22.5 53.5t-20 48.5t-56 18.5zM288 92q70 0 123 38q-123 128 -155 164q-57 -34 -79 -56t-22 -53q0 -42 34.5 -67.5t98.5 -25.5z" glyph-name="ampersand" unicode="&amp;"/>
<glyph horiz-adv-x="276" d="M195 700v-119l-14 -204h-86l-13 204v119h113z" glyph-name="quotesingle" unicode="&apos;"/>
<glyph horiz-adv-x="413" d="M331 731q-74 -143 -105 -247.5t-31 -223.5t31 -223.5t105 -247.5l-86 -51q-163 250 -163 522t163 522z" glyph-name="parenleft" unicode="("/>
<glyph horiz-adv-x="413" d="M82 731l86 51q163 -250 163 -522t-163 -522l-86 51q74 143 105 247.5t31 223.5t-31 223.5t-105 247.5z" glyph-name="parenright" unicode=")"/>
<glyph horiz-adv-x="564" d="M483 541l-133 -56l92 -112l-67 -54l-94 115l-93 -115l-66 54l91 112l-131 56l33 78l125 -52v133h83v-133l125 52z" glyph-name="asterisk" unicode="*"/>
<glyph horiz-adv-x="664" d="M389 545v-194h194v-108h-194v-194h-113v194h-194v108h194v194h113z" glyph-name="plus" unicode="+"/>
<glyph horiz-adv-x="335" d="M253 54q2 -40 -96 -226h-75l71 164q-47 15 -47 65q0 32 21 52t52 20q29 0 51.5 -17.5t22.5 -57.5z" glyph-name="comma" unicode=","/>
<glyph horiz-adv-x="493" d="M412 353v-108h-330v108h330z" glyph-name="hyphen" unicode="-"/>
<glyph horiz-adv-x="310" d="M155 129q32 0 53 -19.5t21 -50.5t-21 -51t-53 -20t-52.5 20t-20.5 51t20.5 50.5t52.5 19.5z" glyph-name="period" unicode="."/>
<glyph horiz-adv-x="353" d="M335 770l-203 -770h-114l203 770h114z" glyph-name="slash" unicode="/"/>
<glyph horiz-adv-x="687" d="M343 712q138 0 215 -96.5t77 -265.5t-77 -265.5t-215 -96.5q-137 0 -214 96t-77 266t77 266t214 96zM343 96q178 0 178 254t-178 254q-177 0 -177 -254t177 -254z" glyph-name="zero" unicode="0"/>
<glyph horiz-adv-x="385" d="M252 700h51v-700h-113v568l-159 -65v111z" glyph-name="one" unicode="1"/>
<glyph horiz-adv-x="613" d="M226 108h346v-108h-531v81l203 178q128 111 162.5 150.5t34.5 83.5q0 48 -35.5 79.5t-97.5 31.5q-123 0 -147 -129h-114q12 109 84.5 173t181.5 64t175.5 -61.5t66.5 -152.5q0 -31 -10.5 -60.5t-23 -51t-47 -57t-57 -56t-79.5 -69.5l-110 -95z" glyph-name="two" unicode="2"/>
<glyph horiz-adv-x="613" d="M459 368q54 -20 83.5 -64t29.5 -105q0 -98 -70.5 -154.5t-185.5 -56.5q-111 0 -187 57t-88 164h114q24 -114 160 -114q69 0 106 30.5t37 83.5q0 100 -133 100h-95v100h75q131 0 131 89q0 48 -35 77.5t-97 29.5q-114 0 -140 -105h-114q14 105 84 158.5t173 53.5 q105 0 174 -56.5t69 -143.5q0 -49 -24 -87t-67 -57z" glyph-name="three" unicode="3"/>
<glyph horiz-adv-x="636" d="M606 267v-106h-101v-161h-113v161l-361 -1v107l306 433h168v-433h101zM154 267h238v328h-9z" glyph-name="four" unicode="4"/>
<glyph horiz-adv-x="615" d="M339 466q100 0 168 -63t68 -168q0 -110 -74 -178.5t-187 -68.5q-107 0 -184.5 59t-88.5 168h114q12 -58 55 -89t103 -31q65 0 106 40t41 101q0 62 -40.5 99t-104.5 37q-96 0 -142 -74h-108l86 402h391v-108h-306l-36 -170q57 44 139 44z" glyph-name="five" unicode="5"/>
<glyph horiz-adv-x="615" d="M340 474q96 0 165 -61.5t69 -169.5q0 -113 -76.5 -184t-190.5 -71q-112 0 -189 70t-77 186q0 59 27.5 123t68.5 123t122 167q22 28 33 43h133l-194 -254q53 28 109 28zM307 96q66 0 109.5 40.5t43.5 106.5t-43 105t-109 39q-68 0 -110.5 -39t-42.5 -106q0 -66 43.5 -106 t108.5 -40z" glyph-name="six" unicode="6"/>
<glyph horiz-adv-x="550" d="M31 700h488v-83l-304 -617h-128l297 592h-353v108z" glyph-name="seven" unicode="7"/>
<glyph horiz-adv-x="609" d="M451 367q56 -20 86.5 -66t30.5 -107q0 -94 -74.5 -150t-188.5 -56q-115 0 -189.5 56t-74.5 150q0 61 30.5 107t86.5 66q-45 19 -70 59t-25 90q0 87 69 141.5t173 54.5q103 0 172 -54.5t69 -141.5q0 -50 -25 -90t-70 -59zM305 605q-61 0 -95 -27.5t-34 -75.5 q0 -92 129 -92q128 0 128 92q0 48 -34 75.5t-94 27.5zM305 95q69 0 109.5 28.5t40.5 80.5q0 108 -150 108q-151 0 -151 -108q0 -52 40.5 -80.5t110.5 -28.5z" glyph-name="eight" unicode="8"/>
<glyph horiz-adv-x="615" d="M308 712q112 0 189 -70t77 -186q0 -59 -27.5 -123t-68.5 -123t-122 -167q-22 -28 -33 -43h-133l194 254q-53 -28 -109 -28q-96 0 -165 61.5t-69 169.5q0 113 76.5 184t190.5 71zM307 313q68 0 110.5 39t42.5 106q0 66 -43.5 106t-108.5 40q-66 0 -109.5 -40.5 t-43.5 -106.5t43 -105t109 -39z" glyph-name="nine" unicode="9"/>
<glyph horiz-adv-x="310" d="M155 512q32 0 53 -19.5t21 -50.5t-21 -51t-53 -20t-52.5 20t-20.5 51t20.5 50.5t52.5 19.5zM155 129q32 0 53 -19.5t21 -50.5t-21 -51t-53 -20t-52.5 20t-20.5 51t20.5 50.5t52.5 19.5z" glyph-name="colon" unicode=":"/>
<glyph horiz-adv-x="335" d="M180 371q-32 0 -53 20t-21 51t21 50.5t53 19.5t52.5 -19.5t20.5 -50.5t-20.5 -51t-52.5 -20zM253 54q2 -40 -96 -226h-75l71 164q-47 15 -47 65q0 32 21 52t52 20q29 0 51.5 -17.5t22.5 -57.5z" glyph-name="semicolon" unicode=";"/>
<glyph horiz-adv-x="664" d="M583 510v-117l-332 -96l332 -96v-119l-501 177v75z" glyph-name="less" unicode="&lt;"/>
<glyph horiz-adv-x="664" d="M583 458v-104h-501v104h501zM583 251v-103h-501v103h501z" glyph-name="equal" unicode="="/>
<glyph horiz-adv-x="664" d="M82 511l501 -176v-76l-501 -176v118l331 96l-331 95v119z" glyph-name="greater" unicode="&gt;"/>
<glyph horiz-adv-x="575" d="M223 220v52q0 50 23.5 74.5t86.5 57.5q49 25 68 44.5t19 54.5q0 47 -33.5 75.5t-97.5 28.5q-122 0 -134 -125h-114q7 112 76 171t176 59q106 0 173.5 -55.5t67.5 -150.5q0 -67 -33.5 -104t-102.5 -73q-34 -18 -49 -34.5t-15 -43.5v-31h-111zM279 -12q-32 0 -53.5 20 t-21.5 51t21 50.5t54 19.5t54.5 -19.5t21.5 -50.5t-21.5 -51t-54.5 -20z" glyph-name="question" unicode="?"/>
<glyph horiz-adv-x="1139" d="M580 782q106 0 198.5 -33.5t161 -95.5t108 -156.5t39.5 -210.5q0 -140 -56 -215t-154 -75q-54 0 -98.5 25t-62.5 83q-60 -108 -181 -108q-99 0 -163 72t-64 183q0 112 64 184t162 72q112 0 173 -96v85h100v-318q0 -43 21.5 -64.5t55.5 -21.5q101 0 101 181 q0 104 -31.5 185t-87.5 130t-127.5 73.5t-155.5 24.5q-190 0 -309.5 -117t-119.5 -313t116.5 -309t301.5 -113q111 0 195 40l20 -93q-100 -43 -218 -43q-227 0 -372 142t-145 376t148.5 380t379.5 146zM556 93q65 0 107.5 44t42.5 114q0 69 -43 114t-107 45t-104.5 -44.5 t-40.5 -114.5q0 -69 41 -113.5t104 -44.5z" glyph-name="at" unicode="@"/>
<glyph horiz-adv-x="748" d="M597 0l-71 188h-304l-71 -188h-120l271 700h144l271 -700h-120zM263 295h222l-111 293z" glyph-name="A" unicode="A"/>
<glyph horiz-adv-x="657" d="M500 374q58 -18 87 -64t29 -112q0 -93 -61 -145.5t-171 -52.5h-302v700h298q102 0 157.5 -47t55.5 -133q0 -103 -93 -146zM479 502q0 46 -26.5 68t-86.5 22h-171v-180h172q112 0 112 90zM381 108q66 0 93.5 25.5t27.5 73.5q0 50 -28 75.5t-94 25.5h-185v-200h186z" glyph-name="B" unicode="B"/>
<glyph horiz-adv-x="792" d="M416 -12q-156 0 -258.5 103t-102.5 259t102.5 259t258.5 103q120 0 211 -66.5t124 -176.5h-121q-28 62 -85 98.5t-130 36.5q-107 0 -176.5 -72t-69.5 -182t69.5 -182t176.5 -72q73 0 130 36.5t85 98.5h121q-33 -110 -124 -176.5t-211 -66.5z" glyph-name="C" unicode="C"/>
<glyph horiz-adv-x="737" d="M327 700q154 0 256 -99t102 -251q0 -151 -102.5 -250.5t-255.5 -99.5h-245v700h245zM328 108q106 0 175 67.5t69 174.5q0 106 -69 174t-175 68h-133v-484h133z" glyph-name="D" unicode="D"/>
<glyph horiz-adv-x="580" d="M539 592h-344v-181h319v-108h-319v-195h344v-108h-457v700h457v-108z" glyph-name="E" unicode="E"/>
<glyph horiz-adv-x="580" d="M539 592h-344v-186h319v-108h-319v-298h-113v700h457v-108z" glyph-name="F" unicode="F"/>
<glyph horiz-adv-x="831" d="M376 372h378v-372h-98v140q-25 -69 -93 -110.5t-160 -41.5q-149 0 -250 102.5t-101 258.5q0 157 103 260t258 103q121 0 211.5 -65t123.5 -173h-121q-29 61 -85.5 95.5t-129.5 34.5q-107 0 -176.5 -72.5t-69.5 -184.5q0 -109 67 -181.5t178 -72.5q89 0 152 49.5t76 133.5 h-263v96z" glyph-name="G" unicode="G"/>
<glyph horiz-adv-x="748" d="M554 700h113v-700h-113v306h-359v-306h-113v700h113v-286h359v286z" glyph-name="H" unicode="H"/>
<glyph horiz-adv-x="277" d="M82 0v700h113v-700h-113z" glyph-name="I" unicode="I"/>
<glyph horiz-adv-x="571" d="M375 700h114v-474q0 -113 -65 -175.5t-166 -62.5q-100 0 -163.5 61t-63.5 173v41h114v-38q0 -129 114 -129q53 0 84.5 32t31.5 101v471z" glyph-name="J" unicode="J"/>
<glyph horiz-adv-x="665" d="M634 0h-143l-296 334v-334h-113v700h113v-320l283 320h142l-302 -341z" glyph-name="K" unicode="K"/>
<glyph horiz-adv-x="544" d="M195 108h319v-108h-432v700h113v-592z" glyph-name="L" unicode="L"/>
<glyph horiz-adv-x="827" d="M612 700h133v-700h-113v547l-216 -326h-11l-215 326v-547h-113v700h133l201 -302z" glyph-name="M" unicode="M"/>
<glyph horiz-adv-x="740" d="M550 700h113v-700h-134l-350 541l11 -248v-293h-113v700h133l350 -540l-10 247v293z" glyph-name="N" unicode="N"/>
<glyph horiz-adv-x="829" d="M415 712q154 0 258 -104t105 -258q-1 -154 -105 -258t-258 -104t-258.5 104t-104.5 258t104.5 258t258.5 104zM415 604q-107 0 -178 -72.5t-71 -181.5t71 -181.5t178 -72.5q106 0 177 72.5t71 181.5t-71 181.5t-177 72.5z" glyph-name="O" unicode="O"/>
<glyph horiz-adv-x="666" d="M369 700q114 0 180 -63t66 -167t-66.5 -168.5t-179.5 -64.5h-174v-237h-113v700h287zM365 345q66 0 100.5 34t34.5 90t-34 89.5t-101 33.5h-170v-247h170z" glyph-name="P" unicode="P"/>
<glyph horiz-adv-x="829" d="M778 350q-2 -158 -108 -261l108 -142l-87 -65l-109 145q-78 -39 -167 -39q-154 0 -258.5 104t-104.5 258t104.5 258t258.5 104t258 -104t105 -258zM166 350q0 -109 71 -181.5t178 -72.5q106 0 177 72.5t71 181.5t-71 181.5t-177 72.5q-107 0 -178 -72.5t-71 -181.5z" glyph-name="Q" unicode="Q"/>
<glyph d="M503 0l-200 261h-108v-261h-113v700h289q112 0 175 -60.5t63 -161.5q0 -86 -46 -140.5t-130 -70.5l209 -267h-139zM195 592v-231h164q67 0 101.5 31.5t34.5 84.5t-34.5 84t-101.5 31h-164z" glyph-name="R" unicode="R"/>
<glyph horiz-adv-x="644" d="M329 412q74 -16 118.5 -30.5t83.5 -38.5t55.5 -58t16.5 -84q0 -106 -77.5 -159.5t-183.5 -53.5q-137 0 -211 64.5t-90 164.5h114q16 -62 60.5 -92.5t125.5 -30.5q71 0 109.5 26.5t38.5 75.5q0 44 -36 62t-141 41q-7 1 -10 2q-58 13 -96 26t-74.5 35t-54 56.5t-17.5 81.5 q0 99 75 155.5t182 56.5q124 0 192.5 -56t84.5 -146h-114q-33 96 -162 96q-69 0 -107 -28t-38 -75q0 -36 32.5 -53.5t123.5 -37.5z" glyph-name="S" unicode="S"/>
<glyph horiz-adv-x="602" d="M571 700v-108h-214v-592h-113v592h-213v108h540z" glyph-name="T" unicode="T"/>
<glyph horiz-adv-x="725" d="M533 700h115v-421q0 -141 -78.5 -216t-204.5 -75t-204.5 75t-78.5 216v421h115v-414q0 -97 45.5 -143.5t122.5 -46.5t122.5 46.5t45.5 143.5v414z" glyph-name="U" unicode="U"/>
<glyph horiz-adv-x="687" d="M536 700h120l-241 -700h-144l-240 700h120l192 -570z" glyph-name="V" unicode="V"/>
<glyph horiz-adv-x="1004" d="M857 700h116l-186 -700h-141l-67 253l-68 313h-18l-67 -313l-67 -253h-142l-186 700h116l89 -335l53 -247l53 247l88 335h144l88 -335l54 -248l53 248z" glyph-name="W" unicode="W"/>
<glyph horiz-adv-x="658" d="M627 0h-134l-165 266l-163 -266h-134l228 361l-218 339h135l155 -250l155 250h134l-220 -346z" glyph-name="X" unicode="X"/>
<glyph horiz-adv-x="681" d="M650 700l-252 -459l-1 -241h-113v239l-253 461h128l182 -334l182 334h127z" glyph-name="Y" unicode="Y"/>
<glyph horiz-adv-x="596" d="M182 108h373v-108h-514v108l372 484h-355v108h496v-108z" glyph-name="Z" unicode="Z"/>
<glyph horiz-adv-x="410" d="M329 770v-108h-134v-804h134v-108h-247v1020h247z" glyph-name="bracketleft" unicode="["/>
<glyph horiz-adv-x="481" d="M196 770l203 -770h-114l-203 770h114z" glyph-name="backslash" unicode="\"/>
<glyph horiz-adv-x="410" d="M82 770h247v-1020h-247v108h133v804h-133v108z" glyph-name="bracketright" unicode="]"/>
<glyph horiz-adv-x="600" d="M300 712l218 -219l-79 -79l-139 138l-139 -138l-79 79z" glyph-name="asciicircum" unicode="^"/>
<glyph horiz-adv-x="623" d="M542 -19v-107h-460v107h460z" glyph-name="underscore" unicode="_"/>
<glyph horiz-adv-x="395" d="M149 839l164 -164l-52 -51l-179 147z" glyph-name="grave" unicode="`"/>
<glyph d="M494 550h113v-550h-113v92q-66 -104 -192 -104q-111 0 -182.5 80.5t-71.5 206.5q0 125 72 206t181 81q126 0 193 -106v94zM326 96q73 0 121 50t48 129q0 78 -48 128.5t-121 50.5q-72 0 -118 -50t-46 -129t46 -129t118 -50z" glyph-name="a" unicode="a"/>
<glyph d="M372 562q109 0 181 -81t72 -206q0 -126 -71.5 -206.5t-182.5 -80.5q-125 0 -192 104v-92h-113v770h113v-314q67 106 193 106zM347 96q72 0 118 50t46 129t-46 129t-118 50q-73 0 -121 -50.5t-48 -128.5q0 -79 48 -129t121 -50z" glyph-name="b" unicode="b"/>
<glyph horiz-adv-x="642" d="M333 -12q-122 0 -203.5 82t-81.5 205t81.5 205t204.5 82q100 0 176 -57.5t94 -154.5h-117q-15 51 -57 79t-96 28q-76 0 -124 -51t-48 -131t48 -131t123 -51q55 0 96.5 29t57.5 79h117q-19 -99 -95 -156t-176 -57z" glyph-name="c" unicode="c"/>
<glyph horiz-adv-x="679" d="M501 770h113v-770h-113v92q-69 -104 -193 -104q-111 0 -182.5 80.5t-71.5 206.5q0 125 72 206t181 81q125 0 194 -106v314zM332 96q73 0 121 50t48 129q0 78 -48 128.5t-121 50.5q-72 0 -118 -50t-46 -129t46 -129t118 -50z" glyph-name="d" unicode="d"/>
<glyph horiz-adv-x="654" d="M332 562q131 0 208.5 -90.5t69.5 -227.5h-447q7 -74 54 -115.5t118 -41.5q50 0 89 21t58 61h117q-31 -89 -102 -135t-163 -46q-125 0 -205.5 80.5t-80.5 205.5t80 206.5t204 81.5zM332 464q-63 0 -105.5 -35.5t-57.5 -92.5h320q-13 58 -54.5 93t-102.5 35z" glyph-name="e" unicode="e"/>
<glyph horiz-adv-x="482" d="M353 682q-114 0 -114 -129v-3h203v-106h-203v-444h-113v444h-102v106h102v8q0 108 60.5 166t153.5 58q70 0 124 -24l-20 -93l-16 5q-39 12 -75 12z" glyph-name="f" unicode="f"/>
<glyph d="M494 550h113v-543q0 -123 -72 -196t-194 -73q-104 0 -180.5 53t-93.5 152h117q14 -51 55 -77.5t99 -26.5q76 0 116 42t40 122v94q-69 -103 -192 -103q-110 0 -182 80t-72 204q0 123 72.5 203.5t181.5 80.5q62 0 111.5 -28.5t80.5 -77.5v94zM326 102q73 0 121 49.5 t48 126.5q0 76 -48.5 126t-120.5 50t-118 -49.5t-46 -126.5t46.5 -126.5t117.5 -49.5z" glyph-name="g" unicode="g"/>
<glyph horiz-adv-x="626" d="M368 562q92 0 145 -57.5t53 -157.5v-347h-113v324q0 130 -121 130q-71 0 -109.5 -44.5t-38.5 -124.5v-285h-113v770h113v-310q62 102 184 102z" glyph-name="h" unicode="h"/>
<glyph horiz-adv-x="244" d="M122 798q32 0 53 -19.5t21 -49.5q0 -31 -21 -51t-53 -20q-31 0 -52 20t-21 51q0 30 21 49.5t52 19.5zM66 0v550h113v-550h-113z" glyph-name="i" unicode="i"/>
<glyph horiz-adv-x="244" d="M122 798q32 0 53 -19.5t21 -49.5q0 -31 -21 -51t-53 -20q-31 0 -52 20t-21 51q0 30 21 49.5t52 19.5zM66 -250v800h113v-800h-113z" glyph-name="j" unicode="j"/>
<glyph horiz-adv-x="613" d="M589 0h-146l-259 254v-254h-113v770h113v-458l238 238h145l-269 -261z" glyph-name="k" unicode="k"/>
<glyph horiz-adv-x="244" d="M67 0v770h114v-770h-114z" glyph-name="l" unicode="l"/>
<glyph horiz-adv-x="953" d="M706 562q87 0 136.5 -55.5t49.5 -153.5v-353h-113v329q0 125 -109 125q-65 0 -100 -46t-35 -123l1 -285h-114v329q0 125 -109 125q-65 0 -99.5 -46t-34.5 -123v-285h-113v550h113v-88q60 100 171 100q128 0 170 -115q60 115 186 115z" glyph-name="m" unicode="m"/>
<glyph horiz-adv-x="622" d="M363 562q93 0 145.5 -57t52.5 -158v-347h-113v324q0 130 -120 130q-72 0 -110.5 -44.5t-38.5 -124.5v-285h-113v550h113v-91q63 103 184 103z" glyph-name="n" unicode="n"/>
<glyph horiz-adv-x="665" d="M333 562q120 0 202.5 -82t82.5 -205t-82 -205t-203 -82q-120 0 -202.5 82.5t-82.5 204.5q0 123 83 205t202 82zM333 454q-72 0 -121.5 -50.5t-49.5 -128.5q0 -79 49 -129t122 -50t122 50t49 129q0 78 -49.5 128.5t-121.5 50.5z" glyph-name="o" unicode="o"/>
<glyph horiz-adv-x="678" d="M377 562q109 0 181 -81t72 -206q0 -126 -71.5 -206.5t-182.5 -80.5q-125 0 -192 104v-342h-113v800h113v-94q67 106 193 106zM352 96q72 0 118 50t46 129t-46 129t-118 50q-73 0 -121 -50.5t-48 -128.5q0 -79 48 -129t121 -50z" glyph-name="p" unicode="p"/>
<glyph d="M494 550h113v-800h-113v342q-67 -104 -192 -104q-111 0 -182.5 80.5t-71.5 206.5q0 125 72 206t181 81q126 0 193 -106v94zM326 96q73 0 121 50t48 129q0 78 -48 128.5t-121 50.5q-72 0 -118 -50t-46 -129t46 -129t118 -50z" glyph-name="q" unicode="q"/>
<glyph horiz-adv-x="419" d="M362 562q21 0 33 -3v-115q-20 2 -34 2q-82 0 -132 -48.5t-50 -145.5v-252h-113v550h113v-109q52 121 183 121z" glyph-name="r" unicode="r"/>
<glyph horiz-adv-x="584" d="M309 -12q-109 0 -181.5 50t-88.5 139h115q13 -46 50 -67.5t107 -21.5q55 0 86.5 16.5t31.5 46.5q0 20 -15.5 33t-36 19t-66.5 17q-17 4 -26 6q-123 30 -171 62.5t-48 98.5q0 82 63.5 128.5t168.5 46.5q103 0 163.5 -44.5t76.5 -122.5h-114q-24 67 -128 67q-54 0 -85 -17 t-31 -46q0 -25 25 -36.5t105 -30.5q52 -12 82.5 -20.5t63.5 -22.5t50 -30t28 -39.5t11 -55.5q0 -85 -66.5 -130.5t-169.5 -45.5z" glyph-name="s" unicode="s"/>
<glyph horiz-adv-x="521" d="M464 120l20 -92q-67 -40 -157 -40q-89 0 -145 57t-56 166v233h-102v106h102v125l113 25v-150h226v-106h-226v-227q0 -124 108 -124q40 0 117 27z" glyph-name="t" unicode="t"/>
<glyph horiz-adv-x="616" d="M439 550h113v-550h-113v91q-64 -103 -183 -103q-91 0 -143 57t-52 158v347h113v-324q0 -130 118 -130q70 0 108.5 44.5t38.5 124.5v285z" glyph-name="u" unicode="u"/>
<glyph horiz-adv-x="581" d="M437 550h120l-198 -550h-137l-198 550h120l146 -432z" glyph-name="v" unicode="v"/>
<glyph horiz-adv-x="860" d="M723 550h113l-157 -550h-132l-53 185l-55 251h-18l-55 -251l-53 -185h-132l-157 550h112l49 -173l64 -258l64 258l49 173h136l48 -173l64 -256l65 256z" glyph-name="w" unicode="w"/>
<glyph horiz-adv-x="580" d="M556 0h-135l-133 197l-128 -197h-136l197 283l-186 267h135l122 -184l118 184h136l-186 -269z" glyph-name="x" unicode="x"/>
<glyph horiz-adv-x="605" d="M460 550h121l-364 -800h-121l145 320l-217 480h121l156 -358z" glyph-name="y" unicode="y"/>
<glyph horiz-adv-x="542" d="M183 107h320v-107h-464v107l314 336h-296v107h441v-107z" glyph-name="z" unicode="z"/>
<glyph horiz-adv-x="513" d="M318 422q0 -78 -26 -114t-87 -48q61 -12 87 -48t26 -114v-40q0 -118 24.5 -162.5t89.5 -49.5v-108q-102 0 -164.5 70.5t-62.5 211.5v46q0 76 -18 107t-81 31h-24v112h24q63 0 81 31t18 107v46q0 141 62.5 211.5t164.5 70.5v-108q-65 -5 -89.5 -49.5t-24.5 -162.5v-40z " glyph-name="braceleft" unicode="{"/>
<glyph horiz-adv-x="276" d="M195 700v-794h-113v794h113z" glyph-name="bar" unicode="|"/>
<glyph horiz-adv-x="513" d="M407 316h25v-112h-25q-63 0 -81 -31t-18 -107v-46q0 -141 -62 -211.5t-164 -70.5v108q65 5 89 49.5t24 162.5v40q0 78 26.5 114t86.5 48q-60 12 -86.5 48t-26.5 114v40q0 118 -24 162.5t-89 49.5v108q102 0 164 -70.5t62 -211.5v-46q0 -76 18 -107t81 -31z" glyph-name="braceright" unicode="}"/>
<glyph horiz-adv-x="639" d="M434 234q-22 0 -44.5 7.5t-34.5 14.5t-42 25q-11 6 -27.5 16t-24 13.5t-17.5 7t-19 3.5q-49 0 -49 -75h-94q0 176 123 176q7 0 14 -0.5t12.5 -1.5t12.5 -3.5t11.5 -3.5t12 -4.5t11 -5.5t12 -6.5t11.5 -6.5t12.5 -7.5t12.5 -7.5q12 -6 28 -16t23.5 -13.5t17 -7t18.5 -3.5 q50 0 50 75h94q0 -176 -124 -176z" glyph-name="asciitilde" unicode="~"/>
<glyph horiz-adv-x="310" d="M155 333q-31 0 -52 20t-21 50q0 31 20.5 51t52.5 20t53 -20t21 -51q0 -30 -21 -50t-53 -20zM212 -238h-114v252l8 228h99l7 -228v-252z" glyph-name="exclamdown" unicode="¡"/>
<glyph horiz-adv-x="642" d="M333 93q55 0 96.5 29t57.5 79h117q-16 -85 -74.5 -139t-140.5 -69v-143h-112v143q-102 19 -165.5 96.5t-63.5 185.5t63.5 185.5t165.5 96.5v143h112v-143q82 -15 141 -69.5t74 -137.5h-117q-15 51 -57 79t-96 28q-76 0 -124 -51t-48 -131t48 -131t123 -51z" glyph-name="cent" unicode="¢"/>
<glyph horiz-adv-x="735" d="M559 194h114q0 -104 -46.5 -149t-143.5 -45h-421v108h39q39 0 53 16.5t14 53.5v112h-106v100h106v99q0 99 59 161t167 62q107 0 169.5 -61t62.5 -163h-114q0 116 -112 116q-119 0 -119 -120v-94h191v-100h-191v-106q0 -56 -32 -76h219q53 0 72 17.5t19 68.5z" glyph-name="sterling" unicode="£"/>
<glyph horiz-adv-x="738" d="M605 349q0 -66 -32 -122l83 -85l-79 -80l-83 84q-58 -34 -125 -34t-124 35l-83 -85l-80 80l84 84q-32 55 -32 123q0 67 33 124l-85 84l80 80l84 -85q56 34 123 34t124 -33l83 84l80 -80l-84 -84q33 -57 33 -124zM369 212q57 0 95.5 38t38.5 99q0 60 -38.5 98.5 t-95.5 38.5q-56 0 -94.5 -38.5t-38.5 -98.5t38.5 -98.5t94.5 -38.5z" glyph-name="currency" unicode="¤"/>
<glyph horiz-adv-x="744" d="M682 700l-228 -414h149v-62h-174v-60h174v-62h-174v-102h-113v102h-175v62h175v60h-175v62h149l-228 414h128l182 -334l182 334h128z" glyph-name="yen" unicode="¥"/>
<glyph horiz-adv-x="276" d="M195 700v-355h-113v355h113zM195 261v-355h-113v355h113z" glyph-name="brokenbar" unicode="¦"/>
<glyph horiz-adv-x="644" d="M477 187q78 -37 78 -118q0 -84 -61.5 -129.5t-164.5 -45.5q-99 0 -161 42.5t-78 120.5h115q22 -76 127 -76q50 0 79.5 20t29.5 56q0 25 -23 36.5t-97 29.5q-53 13 -79 20t-62.5 21t-53.5 29t-30 39t-13 55q0 78 83 131q-78 38 -78 119q0 83 63.5 129t165.5 46 q98 0 159 -41t77 -119h-114q-22 73 -125 73q-49 0 -80.5 -20t-31.5 -56q0 -25 23.5 -36.5t97.5 -29.5q52 -13 78 -20t62.5 -21.5t53.5 -29t30 -39t13 -55.5q0 -77 -83 -131zM200 311q0 -31 24.5 -44t102.5 -33q13 -3 19 -5q5 -1 20.5 -5t22.5 -6q55 36 55 77q0 31 -24.5 44 t-102.5 33q-13 3 -19 5q-18 4 -44 11q-54 -36 -54 -77z" glyph-name="section" unicode="§"/>
<glyph horiz-adv-x="526" d="M149 793q29 0 48 -18t19 -46t-19 -46.5t-48 -18.5t-48 18.5t-19 46.5t19 46t48 18zM376 793q29 0 48.5 -18t19.5 -46t-19.5 -46.5t-48.5 -18.5t-48.5 18.5t-19.5 46.5t19.5 46t48.5 18z" glyph-name="dieresis" unicode="¨"/>
<glyph horiz-adv-x="703" d="M352 782q112 0 191 -79t79 -191t-79 -191t-191 -79t-191 79t-79 191t79 191t191 79zM352 289q92 0 157 65t65 158q0 92 -65 157t-157 65t-157 -65t-65 -157q0 -93 65 -158t157 -65zM353 596q-35 0 -57.5 -23.5t-22.5 -60.5t22.5 -60.5t57.5 -23.5q53 0 70 47h62 q-10 -47 -47 -75t-85 -28q-59 0 -99 40t-40 100t40 100t99 40q48 0 85 -28t47 -75h-62q-18 47 -70 47z" glyph-name="copyright" unicode="©"/>
<glyph horiz-adv-x="710" d="M298 63l-216 216l216 216l77 -78l-139 -138l139 -138zM552 63l-217 216l217 216l77 -78l-139 -138l139 -138z" glyph-name="guillemotleft" unicode="«"/>
<glyph horiz-adv-x="664" d="M583 353v-239h-113v131h-388v108h501z" glyph-name="logicalnot" unicode="¬"/>
<glyph horiz-adv-x="703" d="M352 782q112 0 191 -79t79 -191t-79 -191t-191 -79t-191 79t-79 191t79 191t191 79zM352 289q92 0 157 65t65 158q0 92 -65 157t-157 65t-157.5 -65t-65.5 -157q0 -93 65.5 -158t157.5 -65zM467 558q0 -32 -17.5 -53.5t-49.5 -28.5l78 -101h-70l-74 98h-27v-98h-58v269 h130q42 0 65 -23.5t23 -62.5zM307 594v-76h56q45 0 45 39q0 37 -45 37h-56z" glyph-name="registered" unicode="®"/>
<glyph horiz-adv-x="414" d="M332 770v-83h-250v83h250z" glyph-name="macron" unicode="¯"/>
<glyph horiz-adv-x="506" d="M253 782q72 0 122 -50t50 -121t-50.5 -121.5t-121.5 -50.5t-121.5 50.5t-49.5 121.5q-1 71 49.5 121t121.5 50zM253 700q-37 0 -63 -26t-25 -64q-1 -38 25 -64t63 -26t63 26t26 64t-26 64t-63 26z" glyph-name="degree" unicode="°"/>
<glyph horiz-adv-x="664" d="M389 545v-135h194v-86h-194v-138h-113v138h-194v86h194v135h113zM583 146v-86h-501v86h501z" glyph-name="plusminus" unicode="±"/>
<glyph horiz-adv-x="420" d="M167 451h219v-79h-352v71l146 110q56 42 73.5 61.5t17.5 43.5q0 23 -15.5 37t-44.5 14q-65 0 -73 -72h-99q6 63 51 104t123 41q76 0 116.5 -38t40.5 -91q0 -45 -31.5 -79.5t-102.5 -77.5z" glyph-name="uni00B2" unicode="²"/>
<glyph horiz-adv-x="419" d="M324 584q61 -30 61 -97q0 -52 -42.5 -89t-124.5 -37q-80 0 -128.5 37t-55.5 99h99q13 -64 81 -64q34 0 53 16t19 42q0 53 -53 53h-64v64h51q23 0 38.5 13t15.5 36q0 24 -16.5 38t-46.5 14q-62 0 -71 -64h-99q5 62 51 99.5t121 37.5t117.5 -36.5t42.5 -87.5q0 -49 -49 -74 z" glyph-name="uni00B3" unicode="³"/>
<glyph horiz-adv-x="395" d="M245 840l68 -68l-180 -147l-51 52z" glyph-name="acute" unicode="´"/>
<glyph horiz-adv-x="670" d="M184 700h404v-801h-113v693h-135v-693h-113v509h-43q-44 0 -73 29t-29 73v88q0 44 29 73t73 29z" glyph-name="paragraph" unicode="¶"/>
<glyph horiz-adv-x="310" d="M155 383q32 0 53 -20t21 -51q0 -30 -21 -50t-53 -20q-31 0 -52 20t-21 50q0 31 20.5 51t52.5 20z" glyph-name="periodcentered" unicode="·"/>
<glyph horiz-adv-x="355" d="M195 -79q39 -8 65 -30t26 -60q0 -46 -39 -69.5t-106 -23.5q-27 0 -59 4v58q32 -4 46 -4q70 0 70 41q0 42 -91 50l49 113h78z" glyph-name="cedilla" unicode="¸"/>
<glyph horiz-adv-x="283" d="M198 770h51v-398h-97v297l-118 -40v89z" glyph-name="uni00B9" unicode="¹"/>
<glyph horiz-adv-x="710" d="M159 63l-77 78l139 138l-139 138l77 78l216 -216zM413 63l-78 78l139 138l-139 138l78 78l216 -216z" glyph-name="guillemotright" unicode="»"/>
<glyph horiz-adv-x="917" d="M249 302h-97v297l-118 -40v89l164 52h51v-398zM577 700h109l-400 -700h-109zM883 158v-79h-71v-79h-98v79h-206v79l183 240h121v-240h71zM588 158h126v168z" glyph-name="onequarter" unicode="¼"/>
<glyph horiz-adv-x="962" d="M249 302h-97v297l-118 -40v89l164 52h51v-398zM577 700h109l-400 -700h-109zM708 79h220v-79h-352v70l146 110q57 44 74 62.5t17 42.5t-15.5 38t-44.5 14q-65 0 -73 -73h-99q6 63 51 104t123 41q75 0 116 -38t41 -90q0 -45 -31.5 -79.5t-102.5 -78.5z" glyph-name="onehalf" unicode="½"/>
<glyph horiz-adv-x="1015" d="M385 417q0 -52 -42.5 -89t-124.5 -37q-80 0 -128.5 37t-55.5 99h99q13 -64 81 -64q34 0 53 16t19 42q0 53 -53 53h-64v64h51q23 0 38.5 13t15.5 36q0 24 -16.5 38t-46.5 14q-62 0 -71 -64h-99q5 62 51 99.5t121 37.5t117.5 -36.5t42.5 -87.5q0 -49 -49 -74q61 -30 61 -97 zM675 700h109l-400 -700h-109zM981 158v-79h-71v-79h-98v79h-206v79l183 240h121v-240h71zM686 158h126v168z" glyph-name="threequarters" unicode="¾"/>
<glyph horiz-adv-x="575" d="M295 462q33 0 54.5 -20t21.5 -51t-21.5 -50.5t-54.5 -19.5t-54 19.5t-21 50.5t21.5 51t53.5 20zM351 230v-52q0 -50 -23.5 -75t-85.5 -57q-49 -25 -68.5 -44.5t-19.5 -54.5q0 -47 34 -75.5t98 -28.5q122 0 134 125h114q-7 -112 -76 -171t-177 -59q-106 0 -173 55.5 t-67 150.5q0 67 33.5 104t102.5 73q34 18 49 34.5t15 43.5v31h110z" glyph-name="questiondown" unicode="¿"/>
<glyph horiz-adv-x="748" d="M489 821l-52 -51l-179 147l67 68zM597 0l-71 188h-304l-71 -188h-120l271 700h144l271 -700h-120zM263 295h222l-111 293z" glyph-name="Agrave" unicode="À"/>
<glyph horiz-adv-x="748" d="M489 917l-180 -147l-51 51l163 164zM597 0l-71 188h-304l-71 -188h-120l271 700h144l271 -700h-120zM263 295h222l-111 293z" glyph-name="Aacute" unicode="Á"/>
<glyph horiz-adv-x="748" d="M374 878l-102 -108l-61 61l163 164l164 -164l-62 -61zM597 0l-71 188h-304l-71 -188h-120l271 700h144l271 -700h-120zM263 295h222l-111 293z" glyph-name="Acircumflex" unicode="Â"/>
<glyph horiz-adv-x="748" d="M305 852q-37 0 -37 -63h-70q0 151 103 151q23 0 39 -8t42 -30q40 -33 60 -33q38 0 38 64h70q0 -152 -104 -152q-23 0 -39.5 8.5t-41.5 29.5q-38 33 -60 33zM597 0l-71 188h-304l-71 -188h-120l271 700h144l271 -700h-120zM263 295h222l-111 293z" glyph-name="Atilde" unicode="Ã"/>
<glyph horiz-adv-x="748" d="M260 809q-29 0 -48 18.5t-19 46.5t19 46.5t48 18.5t48 -18.5t19 -46.5t-19 -46.5t-48 -18.5zM487 809q-29 0 -48.5 18.5t-19.5 46.5t19.5 46.5t48.5 18.5t48.5 -18.5t19.5 -46.5t-19.5 -46.5t-48.5 -18.5zM597 0l-71 188h-304l-71 -188h-120l271 700h144l271 -700h-120z M263 295h222l-111 293z" glyph-name="Adieresis" unicode="Ä"/>
<glyph horiz-adv-x="748" d="M373 770q-52 0 -88.5 37t-36.5 89q0 53 36.5 89.5t88.5 36.5q53 0 90 -37t36 -89q1 -52 -36.5 -89t-89.5 -37zM373 955q-25 0 -42 -17t-16 -43q-1 -25 16.5 -42.5t41.5 -17.5q25 0 42 17.5t17 42.5q0 26 -17 43t-42 17zM597 0l-71 188h-304l-71 -188h-120l271 700h144 l271 -700h-120zM263 295h222l-111 293z" glyph-name="Aring" unicode="Å"/>
<glyph horiz-adv-x="874" d="M833 592h-344v-181h318v-108h-318v-195h344v-108h-457v188h-154l-71 -188h-120l271 700h144h387v-108zM263 295h113v298z" glyph-name="AE" unicode="Æ"/>
<glyph horiz-adv-x="792" d="M415 96q73 0 130 36.5t85 98.5h121q-33 -106 -119 -172.5t-202 -70.5l-34 -67q40 -8 66 -30t26 -60q0 -46 -39 -69.5t-106 -23.5q-27 0 -59 4v58q32 -4 46 -4q70 0 70 41q0 42 -91 50l46 106q-133 20 -216.5 119t-83.5 238q0 156 102.5 259t258.5 103q120 0 211 -66.5 t124 -176.5h-121q-28 62 -85 98.5t-130 36.5q-107 0 -176.5 -72t-69.5 -182t69.5 -182t176.5 -72z" glyph-name="Ccedilla" unicode="Ç"/>
<glyph horiz-adv-x="580" d="M406 821l-52 -51l-179 147l67 68zM539 592h-344v-181h319v-108h-319v-195h344v-108h-457v700h457v-108z" glyph-name="Egrave" unicode="È"/>
<glyph horiz-adv-x="580" d="M406 917l-180 -147l-51 51l163 164zM539 592h-344v-181h319v-108h-319v-195h344v-108h-457v700h457v-108z" glyph-name="Eacute" unicode="É"/>
<glyph horiz-adv-x="580" d="M290 878l-102 -108l-61 61l163 164l164 -164l-62 -61zM539 592h-344v-181h319v-108h-319v-195h344v-108h-457v700h457v-108z" glyph-name="Ecircumflex" unicode="Ê"/>
<glyph horiz-adv-x="580" d="M176 809q-29 0 -48 18.5t-19 46.5t19 46.5t48 18.5t48 -18.5t19 -46.5t-19 -46.5t-48 -18.5zM403 809q-29 0 -48.5 18.5t-19.5 46.5t19.5 46.5t48.5 18.5t48.5 -18.5t19.5 -46.5t-19.5 -46.5t-48.5 -18.5zM539 592h-344v-181h319v-108h-319v-195h344v-108h-457v700h457 v-108z" glyph-name="Edieresis" unicode="Ë"/>
<glyph horiz-adv-x="277" d="M89 985l164 -164l-52 -51l-179 147zM82 0v700h113v-700h-113z" glyph-name="Igrave" unicode="Ì"/>
<glyph horiz-adv-x="277" d="M185 985l68 -68l-180 -147l-51 51zM82 0v700h113v-700h-113z" glyph-name="Iacute" unicode="Í"/>
<glyph horiz-adv-x="277" d="M302 831l-62 -61l-102 108l-102 -108l-61 61l163 164zM82 0v700h113v-700h-113z" glyph-name="Icircumflex" unicode="Î"/>
<glyph horiz-adv-x="277" d="M24 939q29 0 48 -18.5t19 -46.5t-19 -46.5t-48 -18.5t-48 18.5t-19 46.5t19 46.5t48 18.5zM251 939q29 0 48.5 -18.5t19.5 -46.5t-19.5 -46.5t-48.5 -18.5t-48.5 18.5t-19.5 46.5t19.5 46.5t48.5 18.5zM82 0v700h113v-700h-113z" glyph-name="Idieresis" unicode="Ï"/>
<glyph horiz-adv-x="737" d="M327 700q154 0 256 -99t102 -251q0 -151 -102.5 -250.5t-255.5 -99.5h-245v296h-64v108h64v296h245zM328 108q106 0 175 67.5t69 174.5q0 106 -69 174t-175 68h-133v-188h122v-108h-122v-188h133z" glyph-name="Eth" unicode="Ð"/>
<glyph horiz-adv-x="740" d="M301 852q-37 0 -37 -63h-70q0 151 103 151q23 0 39 -8t42 -30q40 -33 60 -33q38 0 38 64h70q0 -152 -104 -152q-23 0 -39.5 8.5t-41.5 29.5q-39 33 -60 33zM550 700h113v-700h-134l-350 541l11 -248v-293h-113v700h133l350 -540l-10 247v293z" glyph-name="Ntilde" unicode="Ñ"/>
<glyph horiz-adv-x="829" d="M366 985l164 -164l-52 -51l-179 147zM415 712q154 0 258 -104t105 -258q-1 -154 -105 -258t-258 -104t-258.5 104t-104.5 258t104.5 258t258.5 104zM415 604q-107 0 -178 -72.5t-71 -181.5t71 -181.5t178 -72.5q106 0 177 72.5t71 181.5t-71 181.5t-177 72.5z" glyph-name="Ograve" unicode="Ò"/>
<glyph horiz-adv-x="829" d="M462 985l68 -68l-180 -147l-51 51zM415 712q154 0 258 -104t105 -258q-1 -154 -105 -258t-258 -104t-258.5 104t-104.5 258t104.5 258t258.5 104zM415 604q-107 0 -178 -72.5t-71 -181.5t71 -181.5t178 -72.5q106 0 177 72.5t71 181.5t-71 181.5t-177 72.5z" glyph-name="Oacute" unicode="Ó"/>
<glyph horiz-adv-x="829" d="M578 831l-62 -61l-102 108l-102 -108l-61 61l163 164zM415 712q154 0 258 -104t105 -258q-1 -154 -105 -258t-258 -104t-258.5 104t-104.5 258t104.5 258t258.5 104zM415 604q-107 0 -178 -72.5t-71 -181.5t71 -181.5t178 -72.5q106 0 177 72.5t71 181.5t-71 181.5 t-177 72.5z" glyph-name="Ocircumflex" unicode="Ô"/>
<glyph horiz-adv-x="829" d="M520 933h70q0 -152 -104 -152q-23 0 -39.5 8.5t-41.5 29.5q-39 33 -60 33q-37 0 -37 -63h-70q0 151 103 151q23 0 39 -8t42 -30q40 -33 60 -33q38 0 38 64zM415 712q154 0 258 -104t105 -258q-1 -154 -105 -258t-258 -104t-258.5 104t-104.5 258t104.5 258t258.5 104z M415 604q-107 0 -178 -72.5t-71 -181.5t71 -181.5t178 -72.5q106 0 177 72.5t71 181.5t-71 181.5t-177 72.5z" glyph-name="Otilde" unicode="Õ"/>
<glyph horiz-adv-x="829" d="M300 939q29 0 48 -18.5t19 -46.5t-19 -46.5t-48 -18.5t-48 18.5t-19 46.5t19 46.5t48 18.5zM527 939q29 0 48.5 -18.5t19.5 -46.5t-19.5 -46.5t-48.5 -18.5t-48.5 18.5t-19.5 46.5t19.5 46.5t48.5 18.5zM415 712q154 0 258 -104t105 -258q-1 -154 -105 -258t-258 -104 t-258.5 104t-104.5 258t104.5 258t258.5 104zM415 604q-107 0 -178 -72.5t-71 -181.5t71 -181.5t178 -72.5q106 0 177 72.5t71 181.5t-71 181.5t-177 72.5z" glyph-name="Odieresis" unicode="Ö"/>
<glyph horiz-adv-x="661" d="M503 547l77 -77l-173 -172l173 -173l-77 -76l-173 173l-172 -173l-76 76l172 173l-172 172l76 77l172 -172z" glyph-name="multiply" unicode="×"/>
<glyph horiz-adv-x="829" d="M616 654q75 -48 118 -127.5t44 -176.5q-1 -154 -105 -258t-258 -104q-57 0 -108 15l-18 -38h-114l38 81q-75 48 -118 128t-43 176q0 154 104.5 258t258.5 104q57 0 106 -15l18 38h115zM166 350q0 -128 95 -203l213 450q-27 7 -59 7q-107 0 -178 -72.5t-71 -181.5zM415 96 q106 0 177 72.5t71 181.5q0 129 -95 203l-214 -450q28 -7 61 -7z" glyph-name="Oslash" unicode="Ø"/>
<glyph horiz-adv-x="725" d="M314 985l164 -164l-52 -51l-179 147zM533 700h115v-421q0 -141 -78.5 -216t-204.5 -75t-204.5 75t-78.5 216v421h115v-414q0 -97 45.5 -143.5t122.5 -46.5t122.5 46.5t45.5 143.5v414z" glyph-name="Ugrave" unicode="Ù"/>
<glyph horiz-adv-x="725" d="M410 985l68 -68l-180 -147l-51 51zM533 700h115v-421q0 -141 -78.5 -216t-204.5 -75t-204.5 75t-78.5 216v421h115v-414q0 -97 45.5 -143.5t122.5 -46.5t122.5 46.5t45.5 143.5v414z" glyph-name="Uacute" unicode="Ú"/>
<glyph horiz-adv-x="725" d="M527 831l-62 -61l-102 108l-102 -108l-61 61l163 164zM533 700h115v-421q0 -141 -78.5 -216t-204.5 -75t-204.5 75t-78.5 216v421h115v-414q0 -97 45.5 -143.5t122.5 -46.5t122.5 46.5t45.5 143.5v414z" glyph-name="Ucircumflex" unicode="Û"/>
<glyph horiz-adv-x="725" d="M249 939q29 0 48 -18.5t19 -46.5t-19 -46.5t-48 -18.5t-48 18.5t-19 46.5t19 46.5t48 18.5zM476 939q29 0 48.5 -18.5t19.5 -46.5t-19.5 -46.5t-48.5 -18.5t-48.5 18.5t-19.5 46.5t19.5 46.5t48.5 18.5zM533 700h115v-421q0 -141 -78.5 -216t-204.5 -75t-204.5 75 t-78.5 216v421h115v-414q0 -97 45.5 -143.5t122.5 -46.5t122.5 46.5t45.5 143.5v414z" glyph-name="Udieresis" unicode="Ü"/>
<glyph horiz-adv-x="681" d="M456 917l-180 -147l-51 51l163 164zM650 700l-252 -459l-1 -241h-113v239l-253 461h128l182 -334l182 334h127z" glyph-name="Yacute" unicode="Ý"/>
<glyph horiz-adv-x="666" d="M369 608q114 0 180 -63t66 -167q0 -105 -66.5 -169t-179.5 -64h-174v-145h-113v700h113v-92h174zM365 253q66 0 100.5 34t34.5 90t-34 89.5t-101 33.5h-170v-247h170z" glyph-name="Thorn" unicode="Þ"/>
<glyph horiz-adv-x="632" d="M461 403q63 -18 97.5 -71t34.5 -126q0 -102 -64 -160t-162 -58q-83 0 -141 23l23 104q52 -19 99 -19q60 0 95.5 31t35.5 87q0 55 -35 86.5t-100 31.5h-84v108h69q53 0 84.5 30.5t31.5 82.5t-33.5 86.5t-97.5 34.5q-65 0 -100 -37.5t-35 -106.5v-530h-113v532 q0 116 67 183t181 67q113 0 179 -62.5t66 -154.5q0 -56 -26 -98t-72 -64z" glyph-name="germandbls" unicode="ß"/>
<glyph d="M458 675l-52 -51l-179 147l67 68zM494 550h113v-550h-113v92q-66 -104 -192 -104q-111 0 -182.5 80.5t-71.5 206.5q0 125 72 206t181 81q126 0 193 -106v94zM326 96q73 0 121 50t48 129q0 78 -48 128.5t-121 50.5q-72 0 -118 -50t-46 -129t46 -129t118 -50z" glyph-name="agrave" unicode="à"/>
<glyph d="M458 772l-180 -147l-51 52l163 163zM494 550h113v-550h-113v92q-66 -104 -192 -104q-111 0 -182.5 80.5t-71.5 206.5q0 125 72 206t181 81q126 0 193 -106v94zM326 96q73 0 121 50t48 129q0 78 -48 128.5t-121 50.5q-72 0 -118 -50t-46 -129t46 -129t118 -50z" glyph-name="aacute" unicode="á"/>
<glyph d="M342 734l-102 -109l-61 61l163 164l164 -164l-62 -61zM494 550h113v-550h-113v92q-66 -104 -192 -104q-111 0 -182.5 80.5t-71.5 206.5q0 125 72 206t181 81q126 0 193 -106v94zM326 96q73 0 121 50t48 129q0 78 -48 128.5t-121 50.5q-72 0 -118 -50t-46 -129t46 -129 t118 -50z" glyph-name="acircumflex" unicode="â"/>
<glyph d="M274 713q-37 0 -37 -63h-70q0 151 103 151q23 0 39 -8t42 -30q40 -33 60 -33q38 0 38 64h70q0 -152 -104 -152q-23 0 -39.5 8.5t-41.5 29.5q-39 33 -60 33zM494 550h113v-550h-113v92q-66 -104 -192 -104q-111 0 -182.5 80.5t-71.5 206.5q0 125 72 206t181 81 q126 0 193 -106v94zM326 96q73 0 121 50t48 129q0 78 -48 128.5t-121 50.5q-72 0 -118 -50t-46 -129t46 -129t118 -50z" glyph-name="atilde" unicode="ã"/>
<glyph d="M229 664q-29 0 -48 18.5t-19 46.5t19 46t48 18t48 -18t19 -46t-19 -46.5t-48 -18.5zM456 664q-29 0 -48.5 18.5t-19.5 46.5t19.5 46t48.5 18t48.5 -18t19.5 -46t-19.5 -46.5t-48.5 -18.5zM494 550h113v-550h-113v92q-66 -104 -192 -104q-111 0 -182.5 80.5t-71.5 206.5 q0 125 72 206t181 81q126 0 193 -106v94zM326 96q73 0 121 50t48 129q0 78 -48 128.5t-121 50.5q-72 0 -118 -50t-46 -129t46 -129t118 -50z" glyph-name="adieresis" unicode="ä"/>
<glyph d="M342 625q-52 0 -88.5 37t-36.5 89q0 53 36.5 89.5t88.5 36.5q53 0 90 -37t36 -89q1 -52 -36.5 -89t-89.5 -37zM342 811q-24 0 -41.5 -17.5t-16.5 -42.5q-1 -26 16.5 -43t41.5 -17q25 0 42 17t17 43q0 25 -17 42.5t-42 17.5zM494 550h113v-550h-113v92q-66 -104 -192 -104 q-111 0 -182.5 80.5t-71.5 206.5q0 125 72 206t181 81q126 0 193 -106v94zM326 96q73 0 121 50t48 129q0 78 -48 128.5t-121 50.5q-72 0 -118 -50t-46 -129t46 -129t118 -50z" glyph-name="aring" unicode="å"/>
<glyph horiz-adv-x="1101" d="M779 562q131 0 208.5 -90.5t69.5 -227.5h-447q7 -74 54 -115.5t118 -41.5q50 0 89 21t58 61h117q-31 -89 -102 -135t-163 -46q-115 0 -192 68v-57h-95v91q-66 -103 -192 -103q-110 0 -182 81t-72 207q0 125 72.5 206t181.5 81q124 0 193 -107v95h95l-1 -56q79 68 190 68z M779 464q-63 0 -105.5 -35.5t-57.5 -92.5h320q-13 58 -54.5 93t-102.5 35zM326 96q73 0 121 50t48 129q0 78 -48 128.5t-121 50.5q-71 0 -117.5 -50t-46.5 -129t46 -129t118 -50z" glyph-name="ae" unicode="æ"/>
<glyph horiz-adv-x="642" d="M333 93q55 0 96.5 29t57.5 79h117q-17 -92 -85 -148t-160 -64l-35 -68q40 -8 66 -30t26 -60q0 -46 -39 -69.5t-106 -23.5q-27 0 -59 4v58q32 -4 46 -4q70 0 70 41q0 42 -91 50l46 105q-104 17 -169.5 95.5t-65.5 187.5q0 123 81.5 205t204.5 82q100 0 176 -57.5 t94 -154.5h-117q-15 51 -57 79t-96 28q-76 0 -124 -51t-48 -131t48 -131t123 -51z" glyph-name="ccedilla" unicode="ç"/>
<glyph horiz-adv-x="654" d="M442 675l-52 -51l-179 147l67 68zM332 562q131 0 208.5 -90.5t69.5 -227.5h-447q7 -74 54 -115.5t118 -41.5q50 0 89 21t58 61h117q-31 -89 -102 -135t-163 -46q-125 0 -205.5 80.5t-80.5 205.5t80 206.5t204 81.5zM332 464q-63 0 -105.5 -35.5t-57.5 -92.5h320 q-13 58 -54.5 93t-102.5 35z" glyph-name="egrave" unicode="è"/>
<glyph horiz-adv-x="654" d="M442 772l-180 -147l-51 52l163 163zM332 562q131 0 208.5 -90.5t69.5 -227.5h-447q7 -74 54 -115.5t118 -41.5q50 0 89 21t58 61h117q-31 -89 -102 -135t-163 -46q-125 0 -205.5 80.5t-80.5 205.5t80 206.5t204 81.5zM332 464q-63 0 -105.5 -35.5t-57.5 -92.5h320 q-13 58 -54.5 93t-102.5 35z" glyph-name="eacute" unicode="é"/>
<glyph horiz-adv-x="654" d="M326 734l-102 -109l-61 61l163 164l164 -164l-62 -61zM332 562q131 0 208.5 -90.5t69.5 -227.5h-447q7 -74 54 -115.5t118 -41.5q50 0 89 21t58 61h117q-31 -89 -102 -135t-163 -46q-125 0 -205.5 80.5t-80.5 205.5t80 206.5t204 81.5zM332 464q-63 0 -105.5 -35.5 t-57.5 -92.5h320q-13 58 -54.5 93t-102.5 35z" glyph-name="ecircumflex" unicode="ê"/>
<glyph horiz-adv-x="654" d="M212 664q-29 0 -48 18.5t-19 46.5t19 46t48 18t48 -18t19 -46t-19 -46.5t-48 -18.5zM439 664q-29 0 -48.5 18.5t-19.5 46.5t19.5 46t48.5 18t48.5 -18t19.5 -46t-19.5 -46.5t-48.5 -18.5zM332 562q131 0 208.5 -90.5t69.5 -227.5h-447q7 -74 54 -115.5t118 -41.5 q50 0 89 21t58 61h117q-31 -89 -102 -135t-163 -46q-125 0 -205.5 80.5t-80.5 205.5t80 206.5t204 81.5zM332 464q-63 0 -105.5 -35.5t-57.5 -92.5h320q-13 58 -54.5 93t-102.5 35z" glyph-name="edieresis" unicode="ë"/>
<glyph horiz-adv-x="244" d="M73 839l164 -164l-52 -51l-179 147zM66 0v550h113v-550h-113z" glyph-name="igrave" unicode="ì"/>
<glyph horiz-adv-x="244" d="M169 840l68 -68l-180 -147l-51 52zM66 0v550h113v-550h-113z" glyph-name="iacute" unicode="í"/>
<glyph horiz-adv-x="244" d="M286 686l-62 -61l-102 109l-102 -109l-61 61l163 164zM66 0v550h113v-550h-113z" glyph-name="icircumflex" unicode="î"/>
<glyph horiz-adv-x="244" d="M8 793q29 0 48 -18t19 -46t-19 -46.5t-48 -18.5t-48 18.5t-19 46.5t19 46t48 18zM235 793q29 0 48.5 -18t19.5 -46t-19.5 -46.5t-48.5 -18.5t-48.5 18.5t-19.5 46.5t19.5 46t48.5 18zM66 0v550h113v-550h-113z" glyph-name="idieresis" unicode="ï"/>
<glyph horiz-adv-x="661" d="M614 690l-74 -64q74 -109 74 -302q-1 -111 -41.5 -188.5t-103.5 -112.5t-142 -35q-120 0 -199.5 79t-79.5 205q0 118 70.5 191.5t177.5 73.5q63 0 116.5 -28.5t83.5 -81.5q-17 140 -101.5 194t-253.5 54v107q211 0 320 -77l79 68zM331 86q73 0 120.5 49.5t47.5 130.5 q0 77 -50.5 125.5t-122.5 48.5t-118.5 -48t-46.5 -126q0 -81 48.5 -130.5t121.5 -49.5z" glyph-name="eth" unicode="ð"/>
<glyph horiz-adv-x="622" d="M242 713q-37 0 -37 -63h-70q0 151 103 151q23 0 39 -8t42 -30q40 -33 60 -33q38 0 38 64h70q0 -152 -104 -152q-23 0 -39.5 8.5t-41.5 29.5q-38 33 -60 33zM363 562q93 0 145.5 -57t52.5 -158v-347h-113v324q0 130 -120 130q-72 0 -110.5 -44.5t-38.5 -124.5v-285h-113 v550h113v-91q63 103 184 103z" glyph-name="ntilde" unicode="ñ"/>
<glyph horiz-adv-x="665" d="M284 839l164 -164l-52 -51l-179 147zM333 562q120 0 202.5 -82t82.5 -205t-82 -205t-203 -82q-120 0 -202.5 82.5t-82.5 204.5q0 123 83 205t202 82zM333 454q-72 0 -121.5 -50.5t-49.5 -128.5q0 -79 49 -129t122 -50t122 50t49 129q0 78 -49.5 128.5t-121.5 50.5z" glyph-name="ograve" unicode="ò"/>
<glyph horiz-adv-x="665" d="M380 840l68 -68l-180 -147l-51 52zM333 562q120 0 202.5 -82t82.5 -205t-82 -205t-203 -82q-120 0 -202.5 82.5t-82.5 204.5q0 123 83 205t202 82zM333 454q-72 0 -121.5 -50.5t-49.5 -128.5q0 -79 49 -129t122 -50t122 50t49 129q0 78 -49.5 128.5t-121.5 50.5z" glyph-name="oacute" unicode="ó"/>
<glyph horiz-adv-x="665" d="M496 686l-62 -61l-102 109l-102 -109l-61 61l163 164zM333 562q120 0 202.5 -82t82.5 -205t-82 -205t-203 -82q-120 0 -202.5 82.5t-82.5 204.5q0 123 83 205t202 82zM333 454q-72 0 -121.5 -50.5t-49.5 -128.5q0 -79 49 -129t122 -50t122 50t49 129q0 78 -49.5 128.5 t-121.5 50.5z" glyph-name="ocircumflex" unicode="ô"/>
<glyph horiz-adv-x="665" d="M438 794h70q0 -152 -104 -152q-23 0 -39.5 8.5t-41.5 29.5q-38 33 -60 33q-37 0 -37 -63h-70q0 151 103 151q23 0 39 -8t42 -30q40 -33 60 -33q38 0 38 64zM333 562q120 0 202.5 -82t82.5 -205t-82 -205t-203 -82q-120 0 -202.5 82.5t-82.5 204.5q0 123 83 205t202 82z M333 454q-72 0 -121.5 -50.5t-49.5 -128.5q0 -79 49 -129t122 -50t122 50t49 129q0 78 -49.5 128.5t-121.5 50.5z" glyph-name="otilde" unicode="õ"/>
<glyph horiz-adv-x="665" d="M218 793q29 0 48 -18t19 -46t-19 -46.5t-48 -18.5t-48 18.5t-19 46.5t19 46t48 18zM445 793q29 0 48.5 -18t19.5 -46t-19.5 -46.5t-48.5 -18.5t-48.5 18.5t-19.5 46.5t19.5 46t48.5 18zM333 562q120 0 202.5 -82t82.5 -205t-82 -205t-203 -82q-120 0 -202.5 82.5 t-82.5 204.5q0 123 83 205t202 82zM333 454q-72 0 -121.5 -50.5t-49.5 -128.5q0 -79 49 -129t122 -50t122 50t49 129q0 78 -49.5 128.5t-121.5 50.5z" glyph-name="odieresis" unicode="ö"/>
<glyph horiz-adv-x="664" d="M332 556q32 0 53 -19.5t21 -49.5t-21 -49.5t-53 -19.5t-53 19.5t-21 49.5t21 49.5t53 19.5zM583 353v-108h-501v108h501zM332 180q32 0 53 -19.5t21 -49.5t-21 -49t-53 -19t-53 19t-21 49t21 49.5t53 19.5z" glyph-name="divide" unicode="÷"/>
<glyph horiz-adv-x="665" d="M527 487q91 -83 91 -212q0 -123 -82 -205t-203 -82q-74 0 -139 35l-16 -23h-85l45 63q-90 82 -90 212q0 123 83 205t202 82q71 0 137 -34l16 22h86zM162 275q0 -71 41 -120l203 283q-35 16 -73 16q-72 0 -121.5 -50.5t-49.5 -128.5zM333 96q73 0 122 50t49 129 q0 72 -43 121l-203 -284q37 -16 75 -16z" glyph-name="oslash" unicode="ø"/>
<glyph horiz-adv-x="616" d="M421 675l-52 -51l-179 147l67 68zM439 550h113v-550h-113v91q-64 -103 -183 -103q-91 0 -143 57t-52 158v347h113v-324q0 -130 118 -130q70 0 108.5 44.5t38.5 124.5v285z" glyph-name="ugrave" unicode="ù"/>
<glyph horiz-adv-x="616" d="M421 772l-180 -147l-51 52l163 163zM439 550h113v-550h-113v91q-64 -103 -183 -103q-91 0 -143 57t-52 158v347h113v-324q0 -130 118 -130q70 0 108.5 44.5t38.5 124.5v285z" glyph-name="uacute" unicode="ú"/>
<glyph horiz-adv-x="616" d="M306 734l-102 -109l-61 61l163 164l164 -164l-62 -61zM439 550h113v-550h-113v91q-64 -103 -183 -103q-91 0 -143 57t-52 158v347h113v-324q0 -130 118 -130q70 0 108.5 44.5t38.5 124.5v285z" glyph-name="ucircumflex" unicode="û"/>
<glyph horiz-adv-x="616" d="M192 664q-29 0 -48 18.5t-19 46.5t19 46t48 18t48 -18t19 -46t-19 -46.5t-48 -18.5zM419 664q-29 0 -48.5 18.5t-19.5 46.5t19.5 46t48.5 18t48.5 -18t19.5 -46t-19.5 -46.5t-48.5 -18.5zM439 550h113v-550h-113v91q-64 -103 -183 -103q-91 0 -143 57t-52 158v347h113 v-324q0 -130 118 -130q70 0 108.5 44.5t38.5 124.5v285z" glyph-name="udieresis" unicode="ü"/>
<glyph horiz-adv-x="605" d="M418 772l-180 -147l-51 52l163 163zM460 550h121l-364 -800h-121l145 320l-217 480h121l156 -358z" glyph-name="yacute" unicode="ý"/>
<glyph horiz-adv-x="678" d="M377 562q109 0 181 -81t72 -206q0 -126 -71.5 -206.5t-182.5 -80.5q-125 0 -192 104v-342h-113v1020h113v-314q67 106 193 106zM352 96q72 0 118 50t46 129t-46 129t-118 50q-73 0 -121 -50.5t-48 -128.5q0 -79 48 -129t121 -50z" glyph-name="thorn" unicode="þ"/>
</font>
</defs>
</svg>
